.
Авторизация | Регистрация
Хочешь лучшие торренты? Добавь свой email!
Добавить

Торрент скачать бесплатно

» » Время - вперед! О России без грязи и лжи (2014) WEBRip [H.264 / 720p-LQ] (выпусков 36) торрент скачать бесплатно


    Время - вперед! О России без грязи и лжи (2014) WEBRip [H.264 / 720p-LQ] (выпусков 36) торрент скачать бесплатно

    Опубликовал: Админ | Дата: 3-04-2018, 05:00 | .torrent скачали: 0

    Время - вперед! О России без грязи и лжи (2014) WEBRip [H.264 / 720p-LQ] (выпусков 36)Телекомпания: Время - вперед!
    Жанр: Новости, Экономика, Наука, Медицина, Спорт, Культура

    Описание

    Перед вами еженедельная программа позитивных новостей из жизни страны. Мы устали от деструктивной пропаганды, каждый день нам вдалбливают, что Россия деградирует, отстает, и у нас ничего не получится. Но мы знаем, что мы лучше, чем сами привыкли о себе думать. В наших выпусках только правда. В наших выпусках только позитив. В программу входят хорошие новости промышленности, экономики, науки, медицины, спорта и культуры. Каждый выпуск разбивает устаревшие мифы об угасающей России и показывает её истинное прогрессивное и доброе лицо. Мы пропагандисты и не видим в этом ничего плохого, потому что пропагандируем реальные успехи и достижения, и считаем, что это правильно. Сам по себе факт того, что приходится это делать (встречая порою жесткое противодействие) свидетельствует о том, как привыкли мы жить в чернухе и как сильно недооцениваем наши истинные возможности.
    Трейлер:
    YouTube
    Продолжительность: 03: 00: 09 (36 выпусков по ~5 мин)
    Качество видео: WEBRip
    Видео: AVC/H.264, 1280 х 720, ~1151-1863 kbps
    Аудио: AC3, 2 ch, 192 kbps

    Общее
    Полное имя : D: ТоррентыВремя - вперед 2014141230 Время - вперёд! #123-124. Итоги 2014 года.mkv
    Формат : Matroska
    Версия формата : Version 4/Version 2
    Размер файла : 70, 5 Мбайт
    Продолжительность : 5 м. 45 с.
    Общий поток : 1714 Кбит/сек
    Программа кодирования : XviD4PSP 7.0.447 DAILY
    Библиотека кодирования : Lavf57.71.100
    ErrorDetectionType : Per level 1
    ENCODING_INFO : MP4 MKV/H264 COPY Безопасное/AAC-LC AC3 CBR 192kbps
    Видео
    Идентификатор : 1
    Формат : AVC
    Формат/Информация : Advanced Video Codec
    Профиль формата : Main@L3.1
    Настройки формата : CABAC/3 Ref Frames
    Параметр CABAC формата : Да
    Параметр RefFrames формата : 3 кадра
    Идентификатор кодека : V_MPEG4/ISO/AVC
    Продолжительность : 5 м. 45 с.
    Битрейт : 1488 Кбит/сек
    Ширина : 1280 пикселей
    Высота : 720 пикселей
    Соотношение сторон : 16: 9
    Режим частоты кадров : Постоянный
    Частота кадров : 29, 970 (30000/1001) кадров/сек
    Цветовое пространство : YUV
    Субдискретизация насыщенности : 4: 2: 0
    Битовая глубина : 8 бит
    Тип развёртки : Прогрессивная
    Бит/(Пиксели*Кадры) : 0.054
    Размер потока : 61, 2 Мбайт (87%)
    Заголовок : ISO Media file produced by Google Inc.
    Default : Да
    Forced : Нет
    Аудио
    Идентификатор : 2
    Формат : AC-3
    Формат/Информация : Audio Coding 3
    Идентификатор кодека : A_AC3
    Продолжительность : 5 м. 45 с.
    Вид битрейта : Постоянный
    Битрейт : 192 Кбит/сек
    Каналы : 2 канала
    Расположение каналов : Front: L R
    Частота : 44, 1 КГц
    Частота кадров : 28, 711 кадров/сек (1536 SPF)
    Битовая глубина : 16 бит
    Метод сжатия : С потерями
    Размер потока : 7, 90 Мбайт (11%)
    Заголовок : ISO Media file produced by Google Inc.
    ServiceKind/String : Complete Main
    Default : Да
    Forced : Нет

    140202 Время - вперед! #076-077 1 572 799 0: 05: 52 79 389 610
    140209 Время - вперед! #078 1 242 141 0: 04: 53 53 666 536
    140216 Время - вперед! #079 1 533 935 0: 04: 54 64 824 682
    140224 Сочи-2014 - от спорта к звёздам #080 1 501 873 0: 04: 46 61 897 595
    140310 Время - вперед! #081-082 1 434 566 0: 06: 02 75 123 100
    140316 Время - вперед! #083 1 476 328 0: 04: 43 60 247 090
    140323 Время - вперед! #084 1 281 864 0: 06: 48 76 788 702
    140330 Время - вперед! #085 1 574 775 0: 04: 57 67 095 456
    140406 Время - вперед! #086 1 510 554 0: 04: 33 59 447 184
    140413 Время - вперед! #087 1 679 644 0: 04: 03 58 207 216
    140420 Время - вперед! #088 1 331 469 0: 05: 08 59 852 451
    140505 Время - вперед! #089-090 1 591 485 0: 04: 50 65 978 573
    140518 Время - вперед! #091-092 1 542 621 0: 04: 39 61 859 252
    140525 Время - вперед! #093 1 536 326 0: 04: 52 64 495 243
    140601 Время - вперед! #094 1 354 836 0: 04: 30 53 450 540
    140608 Время - вперед! #095 1 488 082 0: 04: 06 52 780 016
    140623 Время - вперёд! #096-097 1 505 779 0: 05: 28 71 230 154
    140706 Время - вперёд! #098-099 1 211 123 0: 05: 57 63 936 869
    140713 Время - вперёд! #100 1 299 247 0: 08: 00 91 389 274
    140720 Время - вперёд! #101 1 151 841 0: 03: 55 40 345 549
    140727 Время - вперёд! #102 1 262 780 0: 04: 00 44 543 079
    140813 Время - вперёд! #103-104 1 556 293 0: 04: 53 65 485 835
    140817 Время - вперёд! #105 1 863 487 0: 05: 03 79 583 801
    140824 Время - вперёд! #106 1 361 120 0: 04: 02 48 004 535
    140907 Время - вперёд! #107-108 1 509 307 0: 08: 03 104 852 061
    140914 Время - вперёд! #109 1 266 316 0: 03: 39 40 837 615
    140922 Время - вперёд! #110 1 177 975 0: 05: 21 56 231 196
    140929 Время - вперёд! #111 1 353 038 0: 04: 24 52 099 094
    141012 Время - вперёд! #112-113 1 492 391 0: 06: 28 83 472 598
    141023 Время - вперёд! #114-115 1 410 856 0: 04: 42 57 701 401
    141109 Время - вперёд! #116-117 1 217 577 0: 04: 35 49 491 245
    141117 Время - вперёд! #118 1 353 271 0: 03: 44 44 254 287
    141130 Время - вперёд! #119-120 1 214 156 0: 05: 04 54 549 344
    141207 Время - вперёд! #121 1 258 151 0: 03: 51 42 773 429
    141215 Время - вперёд! #122 1 384 037 0: 03: 39 44 183 228
    141230 Время - вперёд! #123-124. Итоги 2014 г 1 487 781 0: 05: 45 73 939 246

    Скриншоты для ознакомления












    Все одноименные релизы в Клубе
    Время раздачи: Пн-Пт с 19: 00 до 23: 00, Сб-Вс с 11: 00 до 23: 00


    Время - вперед! О России без грязи и лжи (2014) WEBRip [H.264/720p-LQ] (выпусков 36)
    Рейтинг →
     (голосов: 1, оценка 4/5, голосовать можно 1 раз )

    Другие торренты по теме:

  • БСО Всесоюзного радио и телевидения / Владимир Федосеев - Метель / Время, вперед! (1980) [FLAC 2.0 24 / 192|traks(Vinyl-Rip)]<Classical, Contemporary> скачать через торрент бесплатно
  • Время - вперед! О России без грязи и лжи (2017) WEBRip [H.264 / 720p-LQ]
  • Время - вперед! О России без грязи и лжи (2015) WEBRip [H.264 / 720p-LQ] (выпусков 40)
  • Время - вперед! О России без грязи и лжи (2016) WEBRip [H.264 / 720p-LQ] (выпусков 41)
  • Время - вперед! О России без грязи и лжи (2013) WEBRip [H.264 / 720p-LQ] (выпусков 44)


    • Комментарии (0):

      Информация

      Информация

        Посетители, находящиеся в группе Гости, не могут оставлять комментарии в данной новости.

        ↓ Меню




        ↓ Опрос

        Вы добавили сайт в закладки?
        Да
        Нет


        Top 10 за месяц (Передачи)