.
Авторизация | Регистрация
Хочешь лучшие торренты? Добавь свой email!
Добавить

Торрент скачать бесплатно

» » Холостяк (2018.04.01) WEB-DL [H.264 / 720p-LQ] (сезон 6, выпуск 4) торрент скачать бесплатно


    Холостяк (2018.04.01) WEB-DL [H.264 / 720p-LQ] (сезон 6, выпуск 4) торрент скачать бесплатно

    Опубликовал: Админ | Дата: 3-04-2018, 05:00 | .torrent скачали: 0

    Холостяк (2018.04.01) WEB-DL [H.264 / 720p-LQ] (сезон 6, выпуск 4)Телекомпания: ТНТ
    Жанр: Реалити Шоу
    Холостяк: Егор Крид

    Описание

    В 6-м сезон любимого сериалае самого романтичного шоу ТНТ главным героем станет 23-летний певец Егор Крид! Самый завидный жених страны, а также артист музыкального лейбла Black Star предстанет перед зрителями шоу Холостяк.
    Именно за его сердце будут бороться самые красивые девушки России.
    Продолжительность: ~01: 30: 00
    Качество видео: WEB-DL
    Субтитры: Отсутствуют
    Видео: AVC/H.264, 1280x720(16: 9), 25.000 fps, ~3530 Kbps
    Аудио: AC3, 2 ch, 192 Kbps, CBR

    General
    Unique ID : 192903548238992419880300450346912546017 (0x911FDF3AF24E45DC93F4E590FFFD7CE1)
    Complete name : /media/vitali/MOVIES/Holostyak.S06.WEB-DL (720p)/Holostyak.S06.E04.WEB-DL (720p).mkv
    Format : Matroska
    Format version : Version 2
    File size : 2.35 GiB
    Duration : 1 h 30 min
    Overall bit rate : 3 727 kb/s
    Encoded date : UTC 2018-04-02 02: 09: 24
    Writing application : mkvmerge v7.8.0 (\'River Man\') 32bit built on Apr 3 2015 12: 11: 22
    Writing library : libebml v1.3.1 + libmatroska v1.4.2
    Video
    ID : 1
    Format : AVC
    Format/Info : Advanced Video Codec
    Format profile : High@L3.1
    Format settings, CABAC : Yes
    Format settings, RefFrames : 1 frame
    Format settings, GOP : M=1, N=12
    Codec ID : V_MPEG4/ISO/AVC
    Duration : 1 h 30 min
    Bit rate : 3 525 kb/s
    Width : 1 280 pixels
    Height : 720 pixels
    Display aspect ratio : 16: 9
    Frame rate mode : Constant
    Frame rate : 25.000 FPS
    Standard : Component
    Color space : YUV
    Chroma subsampling : 4: 2: 0
    Bit depth : 8 bits
    Scan type : Progressive
    Bits/(Pixel*Frame) : 0.153
    Stream size : 2.22 GiB (95%)
    Default : Yes
    Forced : No
    Color range : Limited
    Audio
    ID : 2
    Format : MPEG Audio
    Format version : Version 1
    Format profile : Layer 3
    Codec ID : A_MPEG/L3
    Codec ID/Hint : MP3
    Duration : 1 h 30 min
    Bit rate mode : Constant
    Bit rate : 128 kb/s
    Channel(s) : 2 channels
    Sampling rate : 44.1 kHz
    Compression mode : Lossy
    Stream size : 82.6 MiB (3%)
    Writing library : LAME3.99r
    Encoding settings : -m s -V 4 -q 2 -lowpass 17 -b 128
    Default : Yes
    Forced : No

    Скриншоты для ознакомления



    Все одноименные релизы в Клубе
    Время раздачи: По возможности (до появления первых 3-5 скачавших)


    Холостяк (2018.04.01) WEB-DL [H.264/720p-LQ] (сезон 6, выпуск 4)
    Рейтинг →
     (голосов: 1, оценка 4/5, голосовать можно 1 раз )

    Другие торренты по теме:

  • Холостяк. Сезон №3. Выпуск 8 (2015.04.25) WEB-DL [H.264 / 720p-LQ] скачать через торрент бесплатно
  • Холостяк. Сезон №3. Выпуск 9 (2015.05.02) WEB-DL [H.264 / 720p-LQ] скачать через торрент бесплатно
  • Холостяк. Сезон №3. Выпуск 10 (2015.05.10) WEB-DL [H.264 / 720p-LQ] скачать через торрент бесплатно
  • Холостяк. Сезон №3. Выпуск 11 (2015.05.16) WEB-DL [H.264 / 720p-LQ] скачать через торрент бесплатно
  • Холостяк. Сезон №3. Выпуск 12 (2015.05.23) WEB-DL [H.264 / 720p-LQ] скачать через торрент бесплатно
  • Холостяк. Сезон №3. Выпуск 13. Финал (2015.05.30) WEB-DL [H.264 / 720p] скачать через торрент бесплатно
  • Холостяк (2016.05.21) WEB-DL [H.264 / 720p-LQ] (сезон 4, выпуск 11)
  • Холостяк (2016.05.28) WEB-DL [H.264 / 720p-LQ] (сезон 4, выпуск 12)


    • Комментарии (0):

      Информация

      Информация

        Посетители, находящиеся в группе Гости, не могут оставлять комментарии в данной новости.

        ↓ Меню




        ↓ Опрос

        Вы добавили сайт в закладки?
        Да
        Нет


        Top 10 за месяц (Передачи)