.
Авторизация | Регистрация
Хочешь лучшие торренты? Добавь свой email!
Добавить

Торрент скачать бесплатно

» » Время - вперед! О России без грязи и лжи (2013) WEBRip [H.264 / 720p-LQ] (выпусков 44) торрент скачать бесплатно


    Время - вперед! О России без грязи и лжи (2013) WEBRip [H.264 / 720p-LQ] (выпусков 44) торрент скачать бесплатно

    Опубликовал: Админ | Дата: 3-04-2018, 05:00 | .torrent скачали: 0

    Время - вперед! О России без грязи и лжи (2013) WEBRip [H.264 / 720p-LQ] (выпусков 44)Телекомпания: Время - вперед!
    Жанр: Новости, Экономика, Наука, Медицина, Спорт, Культура

    Описание

    Перед вами еженедельная программа позитивных новостей из жизни страны. Мы устали от деструктивной пропаганды, каждый день нам вдалбливают, что Россия деградирует, отстает, и у нас ничего не получится. Но мы знаем, что мы лучше, чем сами привыкли о себе думать. В наших выпусках только правда. В наших выпусках только позитив. В программу входят хорошие новости промышленности, экономики, науки, медицины, спорта и культуры. Каждый выпуск разбивает устаревшие мифы об угасающей России и показывает её истинное прогрессивное и доброе лицо. Мы пропагандисты и не видим в этом ничего плохого, потому что пропагандируем реальные успехи и достижения, и считаем, что это правильно. Сам по себе факт того, что приходится это делать (встречая порою жесткое противодействие) свидетельствует о том, как привыкли мы жить в чернухе и как сильно недооцениваем наши истинные возможности.
    Трейлер:
    YouTube
    Продолжительность: 03: 04: 37 (44 выпусков по ~4 мин)
    Качество видео: WEBRip
    Видео: AVC/H.264, 1280х720, ~986-2377 kbps
    Аудио: AC3, 2 ch, 192 kbps

    Общее
    Полное имя : D: ТоррентыВремя - вперед 2013130728 Время - вперед! #054.mkv
    Формат : Matroska
    Версия формата : Version 4/Version 2
    Размер файла : 82, 3 Мбайт
    Продолжительность : 4 м. 52 с.
    Общий поток : 2361 Кбит/сек
    Программа кодирования : XviD4PSP 7.0.447 DAILY
    Библиотека кодирования : Lavf57.71.100
    ErrorDetectionType : Per level 1
    ENCODING_INFO : MP4 MKV/H264 COPY Безопасное/AAC-LC AC3 CBR 192kbps
    Видео
    Идентификатор : 1
    Формат : AVC
    Формат/Информация : Advanced Video Codec
    Профиль формата : High@L3.1
    Настройки формата : CABAC/1 Ref Frames
    Параметр CABAC формата : Да
    Параметр RefFrames формата : 1 кадр
    Параметр GOP формата : M=1, N=60
    Идентификатор кодека : V_MPEG4/ISO/AVC
    Продолжительность : 4 м. 52 с.
    Битрейт : 2122 Кбит/сек
    Ширина : 1280 пикселей
    Высота : 720 пикселей
    Соотношение сторон : 16: 9
    Режим частоты кадров : Постоянный
    Частота кадров : 29, 970 (30000/1001) кадров/сек
    Цветовое пространство : YUV
    Субдискретизация насыщенности : 4: 2: 0
    Битовая глубина : 8 бит
    Тип развёртки : Прогрессивная
    Бит/(Пиксели*Кадры) : 0.077
    Размер потока : 73, 9 Мбайт (90%)
    Default : Да
    Forced : Нет
    Аудио
    Идентификатор : 2
    Формат : AC-3
    Формат/Информация : Audio Coding 3
    Идентификатор кодека : A_AC3
    Продолжительность : 4 м. 52 с.
    Вид битрейта : Постоянный
    Битрейт : 192 Кбит/сек
    Каналы : 2 канала
    Расположение каналов : Front: L R
    Частота : 44, 1 КГц
    Частота кадров : 28, 711 кадров/сек (1536 SPF)
    Битовая глубина : 16 бит
    Метод сжатия : С потерями
    Размер потока : 6, 69 Мбайт (8%)
    Заголовок : IsoMedia File Produced by Google, 5-11-2011
    ServiceKind/String : Complete Main
    Default : Да
    Forced : Нет

    130111 Время - вперед! #027 1 488 325 0: 03: 43 47 793 486
    130118 Время - вперед! #028 1 618 691 0: 03: 42 51 493 407
    130126 Время - вперед! #029 2 098 914 0: 04: 30 79 112 629
    130202 Время - вперед! #030 1 384 176 0: 03: 58 47 953 892
    130209 Время - вперед! #031 1 726 617 0: 05: 42 83 778 736
    130216 Время - вперед! #032 0 985 968 0: 03: 48 34 389 237
    130223 Время - вперед! #033 1 380 799 0: 04: 25 53 175 043
    130302 Время - вперед! #034 1 434 207 0: 03: 22 41 916 611
    130309 Время - вперед! #035 1 115 266 0: 03: 50 38 396 366
    130317 Время - вперед! #036 1 556 822 0: 03: 39 48 895 113
    130323 Время - вперед! #037 1 119 516 0: 03: 16 32 904 973
    130330 Время - вперед! #038 1 020 024 0: 03: 31 32 756 094
    130406 Время - вперед! #039 1 663 782 0: 04: 19 61 425 325
    130413 Время - вперед! #040 1 701 459 0: 03: 56 57 194 982
    130420 Время - вперед! #041 1 659 825 0: 03: 44 53 082 906
    130428 Время - вперед! #042 1 577 567 0: 03: 52 52 540 613
    130504 Время - вперед! #043 1 316 471 0: 04: 31 52 246 460
    130519 Время - вперед! #045 1 683 211 0: 03: 45 53 944 830
    130526 Время - вперед! #046 1 090 097 0: 03: 45 36 882 538
    130602 Время - вперед! #047 2 249 410 0: 04: 56 92 389 193
    130609 Время - вперед! #048 1 015 279 0: 03: 59 36 832 425
    130616 Время - вперед! #049 1 861 297 0: 04: 06 64 431 051
    130623 Время - вперед! #050 1 720 404 0: 05: 18 77 679 818
    130630 Время - вперед! #051 1 184 864 0: 03: 28 36 575 024
    130707 Время - вперед! #052 1 192 961 0: 04: 12 44 615 724
    130721 Время - вперед! #053 2 191 738 0: 03: 37 66 223 131
    130721 Спецвыпуск- оболганная Универсиада-2013 2 377 212 0: 04: 12 82 765 705
    130728 Время - вперед! #054 2 122 287 0: 04: 52 86 252 406
    130804 Время - вперед! #055 2 095 218 0: 03: 55 68 794 491
    130804 Спецвыпуск. Где самый дорогой бензин 1 406 457 0: 03: 40 44 881 275
    130812 Время - вперед! #056 1 719 031 0: 03: 49 55 959 966
    130825 Время - вперед! #057-058 1 284 429 0: 06: 00 67 867 335
    130901 Время - вперед! #059 1 601 419 0: 04: 47 65 852 010
    130907 Время - вперед! #060 2 125 067 0: 03: 36 63 979 688
    130923 Время - вперед! #061-062 1 742 431 0: 06: 47 100 446 923
    130929 Время - вперед! #063 2 147 452 0: 03: 26 61 583 956
    131007 Время - вперед! #064 1 591 089 0: 04: 10 56 854 940
    131020 Время - вперед! #065-066 1 548 697 0: 05: 24 72 112 566
    131028 Время - вперед! #067 1 380 208 0: 03: 56 47 482 837
    131103 Время - вперед! #068 1 173 013 0: 03: 32 37 042 898
    131117 Время - вперед! #069-070 1 164 262 0: 05: 04 52 655 995
    131201 Время - вперед! #071-072 1 206 019 0: 04: 24 47 172 609
    131208 Время - вперед! #073 1 249 009 0: 03: 33 39 252 460
    131222 Время - вперед! #074-075 1 523 687 0: 04: 36 60 559 081

    Скриншоты для ознакомления







    Все одноименные релизы в Клубе
    Время раздачи: Пн-Пт с 19: 00 до 23: 00, Сб-Вс с 11: 00 до 23: 00 (до появления первых 3-5 скачавших)


    Время - вперед! О России без грязи и лжи (2013) WEBRip [H.264/720p-LQ] (выпусков 44)
    Рейтинг →
     (голосов: 1, оценка 5/5, голосовать можно 1 раз )

    Другие торренты по теме:

  • БСО Всесоюзного радио и телевидения / Владимир Федосеев - Метель / Время, вперед! (1980) [FLAC 2.0 24 / 192|traks(Vinyl-Rip)]<Classical, Contemporary> скачать через торрент бесплатно
  • Время - вперед! О России без грязи и лжи (2017) WEBRip [H.264 / 720p-LQ]
  • Время - вперед! О России без грязи и лжи (2015) WEBRip [H.264 / 720p-LQ] (выпусков 40)
  • Время - вперед! О России без грязи и лжи (2016) WEBRip [H.264 / 720p-LQ] (выпусков 41)
  • Время - вперед! О России без грязи и лжи (2014) WEBRip [H.264 / 720p-LQ] (выпусков 36)


    • Комментарии (0):

      Информация

      Информация

        Посетители, находящиеся в группе Гости, не могут оставлять комментарии в данной новости.

        ↓ Меню




        ↓ Опрос

        Вы добавили сайт в закладки?
        Да
        Нет


        Top 10 за месяц (Передачи)