.
Авторизация | Регистрация
Хочешь лучшие торренты? Добавь свой email!
Добавить

Торрент скачать бесплатно

» » Бокс. Александр Поветкин - Дэвид Прайс (31.03.2018) HDTVRip торрент скачать бесплатно


    Бокс. Александр Поветкин - Дэвид Прайс (31.03.2018) HDTVRip торрент скачать бесплатно

    Опубликовал: Админ | Дата: 2-04-2018, 05:00 | .torrent скачали: 4

    Бокс. Александр Поветкин - Дэвид Прайс (31.03.2018) HDTVRipТелекомпания: МатчTV
    Жанр: Спорт, Бокс
    Комментаторы: Р. Гришин и Б. Скрипко

    Описание

    Бой за титулы интернационального чемпиона по версии WBO и интерконтинентального чемпиона по версии WBА в супертяжёлом весе (свыше 90, 7 кг) между россиянином Александром Поветкиным (33-1, 23 КО) и британцем Дэвидом Прайсом (22-4, 18 КО).
    Продолжительность: 00: 36: 07
    Качество видео: HDTVRip
    Субтитры: отсутствуют
    Видео: AVC/H.264, 1280x720, ~4220 Кбит/с
    Аудио: AC3, 2 ch, 128 Кбит/с

    Общее
    Уникальный идентификатор : 39967234913454342120030728630533957181 (0x1E1168D1CEE1EAAFBE4F530C2209263D)
    Полное имя : WBO International WBA Inter-Continental Championship Alexander Povetkin vs David Price HDTVRip 720p.mkv
    Формат : Matroska
    Версия формата : Version 2
    Размер файла : 1, 15 Гбайт
    Продолжительность : 36 м.
    Общий поток : 4567 Кбит/сек
    Программа кодирования : Lavf54.63.104
    Библиотека кодирования : Lavf54.63.104/Lavf54.63.104
    Видео
    Идентификатор : 1
    Формат : AVC
    Формат/Информация : Advanced Video Codec
    Профиль формата : High@L3.2
    Параметр CABAC формата : Да
    Параметр ReFrames формата : 4 кадра
    Идентификатор кодека : V_MPEG4/ISO/AVC
    Продолжительность : 36 м.
    Битрейт : 4220 Кбит/сек
    Ширина : 1280 пикселей
    Высота : 720 пикселей
    Соотношение сторон : 16: 9
    Режим частоты кадров : Постоянный
    Частота кадров : 50, 000 кадров/сек
    Цветовое пространство : YUV
    Субдискретизация насыщенности : 4: 2: 0
    Битовая глубина : 8 бит
    Тип развёртки : Прогрессивная
    Бит/(Пиксели*Кадры) : 0.092
    Размер потока : 1, 06 Гбайт (92%)
    Default : Нет
    Forced : Нет
    Аудио #1
    Идентификатор : 2
    Формат : AC-3
    Формат/Информация : Audio Coding 3
    Расширение режима : CM (complete main)
    Параметр Endianness формата : Big
    Идентификатор кодека : A_AC3
    Продолжительность : 36 м.
    Вид битрейта : Постоянный
    Битрейт : 128 Кбит/сек
    Каналы : 2 канала
    Расположение каналов : Front: L R
    Частота : 48, 0 КГц
    Частота кадров : 31, 250 кадров/сек (1536 spf)
    Метод сжатия : С потерями
    Размер потока : 33, 1 Мбайт (3%)
    Язык : Russian
    Default : Да
    Forced : Нет
    Аудио #2
    Идентификатор : 3
    Формат : AC-3
    Формат/Информация : Audio Coding 3
    Расширение режима : CM (complete main)
    Параметр Endianness формата : Big
    Идентификатор кодека : A_AC3
    Продолжительность : 36 м.
    Вид битрейта : Постоянный
    Битрейт : 128 Кбит/сек
    Каналы : 2 канала
    Расположение каналов : Front: L R
    Частота : 48, 0 КГц
    Частота кадров : 31, 250 кадров/сек (1536 spf)
    Метод сжатия : С потерями
    Размер потока : 33, 1 Мбайт (3%)
    Default : Нет
    Forced : Нет

    Скриншоты для ознакомления



    Все одноименные релизы в Клубе
    Время раздачи: 24/7 (до появления первых 3-5 скачавших)


    Бокс. Александр Поветкин - Дэвид Прайс (31.03.2018) HDTVRip
    Рейтинг →
     (голосов: 1, оценка 3/5, голосовать можно 1 раз )

    Другие торренты по теме:

  • Бокс. Александр Усик - Дэниэл Брюэр / Oleksandr Usyk vs Daniel Bruwer (2014) IPTVRip скачать через торрент бесплатно
  • Бокс. Александр Поветкин – Карлос Такам / Alexander Povetkin vs Carlos Takam & undercard (2014.10.24) HDTVRip [H.264 / 720p] [hand made 50fps] скачать через торрент бесплатно
  • Бокс. Александр Поветкин vs Андрей Руденко / Alexander Povetkin vs. Andrei Rudenko (01.07.2017) IPTV [H.264 / 576p-LQ]
  • Бокс. Кшиштоф Гловацки - Александр Усик / Krzysztof Glowacki vs Oleksandr Usyk (17.09.2016) HDTV [H.264 / 1080i-LQ] [UKR, RU, TUR]
  • Александр Ковтик | Тайский бокс. Уроки профессионала для начинающих (2010) [PDF, FB2, EPUB]


    • Комментарии (0):

      Информация

      Информация

        Посетители, находящиеся в группе Гости, не могут оставлять комментарии в данной новости.

        ↓ Меню




        ↓ Опрос

        Вы добавили сайт в закладки?
        Да
        Нет


        Top 10 за месяц (Передачи)