.
Авторизация | Регистрация
Хочешь лучшие торренты? Добавь свой email!
Добавить

Торрент скачать бесплатно

» » Мартиросян Official (2018.04.01) WEB-DL [H.264 / 720p-LQ] торрент скачать бесплатно


    Мартиросян Official (2018.04.01) WEB-DL [H.264 / 720p-LQ] торрент скачать бесплатно

    Опубликовал: Админ | Дата: 2-04-2018, 05:00 | .torrent скачали: 0

    Мартиросян Official (2018.04.01) WEB-DL [H.264 / 720p-LQ]Телекомпания: ТНТ
    Жанр: Юмор
    Ведущий: Гарик Мартиросян
    Гости: Семен Слепаков, Гарик Харламов, Фёдор Бондарчук, Джиган, Егор Крид, Лев Лещенко, Полина Попова

    Описание

    Специальная программа ко всемирному празднику - Дню смеха или Дню Дураков - кому что ближе. Ведущий Гарик Мартиросян и его звездные гости сделают так, чтобы смех зрителей ТНТ в этот день был слышен даже за рулем Tesla, что болтается в бескрайнем космосе...
    Релиз от: Алехаndr
    Продолжительность: 00: 46: 36
    Качество видео: WEB-DL
    Субтитры: Отсутствуют
    Видео: AVC/H.264, 1280x720, ~3580 Kbps
    Аудио: AC3, 2 ch, 192 Kbps

    Общее
    Уникальный идентификатор : 279585657437228651898248876603229841354 (0xD2563D2D00FFC100F8055E65B213A7CA)
    Полное имя : G: Мартиросян Official (01.04.2018).by.Алехаndr.mkv
    Формат : Matroska
    Версия формата : Version 4/Version 2
    Размер файла : 1, 23 Гбайт
    Продолжительность : 46 м. 36 с.
    Общий поток : 3775 Кбит/сек
    Дата кодирования : UTC 2018-04-01 21: 36: 35
    Программа кодирования : mkvmerge v21.0.0 (\'Tardigrades Will Inherit The Earth\') 64-bit
    Библиотека кодирования : libebml v1.3.5 + libmatroska v1.4.8/Lavf57.71.100
    Видео
    Идентификатор : 1
    Формат : AVC
    Формат/Информация : Advanced Video Codec
    Профиль формата : High@L3.1
    Настройки формата : CABAC/1 Ref Frames
    Параметр CABAC формата : Да
    Параметр RefFrames формата : 1 кадр
    Параметр GOP формата : M=1, N=12
    Идентификатор кодека : V_MPEG4/ISO/AVC
    Продолжительность : 46 м. 36 с.
    Битрейт : 3581 Кбит/сек
    Ширина : 1280 пикселей
    Высота : 720 пикселей
    Соотношение сторон : 16: 9
    Режим частоты кадров : Постоянный
    Частота кадров : 25, 000 кадров/сек
    Стандарт вещания : Component
    Цветовое пространство : YUV
    Субдискретизация насыщенности : 4: 2: 0
    Битовая глубина : 8 бит
    Тип развёртки : Прогрессивная
    Бит/(Пиксели*Кадры) : 0.155
    Размер потока : 1, 17 Гбайт (95%)
    Default : Да
    Forced : Нет
    Цветовой диапазон : Limited
    Аудио
    Идентификатор : 2
    Формат : AC-3
    Формат/Информация : Audio Coding 3
    Идентификатор кодека : A_AC3
    Продолжительность : 46 м. 36 с.
    Вид битрейта : Постоянный
    Битрейт : 192 Кбит/сек
    Каналы : 2 канала
    Расположение каналов : Front: L R
    Частота : 44, 1 КГц
    Частота кадров : 28, 711 кадров/сек (1536 SPF)
    Битовая глубина : 16 бит
    Метод сжатия : С потерями
    Размер потока : 64, 0 Мбайт (5%)
    Язык : Russian
    ServiceKind/String : Complete Main
    Default : Да
    Forced : Нет

    Скриншоты для ознакомления



    Все одноименные релизы в Клубе
    Время раздачи: 24/7 (круглосуточно) (до появления первых 3-5 скачавших)


    Мартиросян Official (2018.04.01) WEB-DL [H.264/720p-LQ]
    Рейтинг →
     (голосов: 1, оценка 3/5, голосовать можно 1 раз )

    Другие торренты по теме:

  • Мартиросян Official (2018.04.01) HDTV [H.264 / 1080p-LQ]


    • Комментарии (0):

      Информация

      Информация

        Посетители, находящиеся в группе Гости, не могут оставлять комментарии в данной новости.

        ↓ Меню




        ↓ Опрос

        Вы добавили сайт в закладки?
        Да
        Нет


        Top 10 за месяц (Передачи)