.
Авторизация | Регистрация
Хочешь лучшие торренты? Добавь свой email!
Добавить

Торрент скачать бесплатно

  • support: webmaster@btracker.org
» » Нонна Мордюкова. Прости меня за любовь (2018) SATRip торрент скачать бесплатно


    Нонна Мордюкова. Прости меня за любовь (2018) SATRip торрент скачать бесплатно

    Опубликовал: Админ | Дата: 2-04-2018, 05:00 | .torrent скачали: 1

    Нонна Мордюкова. Прости меня за любовь (2018) SATRipТелекомпания: 1 канал
    Жанр: Документальный

    Описание

    Знаменитой и любимой миллионами актрисе Нонне Мордюковой была по плечу любая роль! Но в жизни ей так и не удались самые главные для женщины роли: счастливой жены и матери.
    Релиз от: -=DeMoH=-
    Продолжительность: 00: 49: 55
    Качество видео: SATRip
    Субтитры: отсутствуют
    Видео: Xvid, 704x448 25.00fps, ~1800 kbps
    Аудио: MP3, 2 ch, 192 kbps

    Общее
    Полное имя : Nonna.Mordyukova-Prosti.Menya.Za.Lyubov.SATRip.avi
    Формат : AVI
    Формат/Информация : Audio Video Interleave
    Размер файла : 715 Мбайт
    Продолжительность : 49 м.
    Общий поток : 2002 Кбит/сек
    Программа кодирования : VirtualDubMod 1.5.10.3 |www.virtualdub-fr.org|| (build 2550/release)
    Библиотека кодирования : VirtualDubMod build 2550/release
    Видео
    Идентификатор : 0
    Формат : MPEG-4 Visual
    Профиль формата : Advanced Simple@L5
    Параметр BVOP формата : 2
    Параметр QPel формата : Нет
    Параметр GMC формата : Без точки перехода
    Параметр матрицы формата : Default (H.263)
    Идентификатор кодека : XVID
    Идентификатор кодека/Подсказка : XviD
    Продолжительность : 49 м.
    Битрейт : 1800 Кбит/сек
    Ширина : 704 пикселя
    Высота : 448 пикселей
    Соотношение сторон : 16: 10
    Частота кадров : 25, 000 кадров/сек
    Цветовое пространство : YUV
    Субдискретизация насыщенности : 4: 2: 0
    Битовая глубина : 8 бит
    Тип развёртки : Прогрессивная
    Метод сжатия : С потерями
    Бит/(Пиксели*Кадры) : 0.228
    Размер потока : 643 Мбайт (90%)
    Библиотека кодирования : XviD 1.2.1 (UTC 2008-12-04)
    Аудио
    Идентификатор : 1
    Формат : AC-3
    Формат/Информация : Audio Coding 3
    Расширение режима : CM (complete main)
    Параметр Endianness формата : Big
    Идентификатор кодека : 2000
    Продолжительность : 49 м.
    Вид битрейта : Постоянный
    Битрейт : 192 Кбит/сек
    Каналы : 2 канала
    Расположение каналов : Front: L R
    Частота : 48, 0 КГц
    Частота кадров : 31, 250 кадров/сек (1536 spf)
    Метод сжатия : С потерями
    Размер потока : 68, 6 Мбайт (10%)
    Выравнивание : Разделение по промежуткам
    Продолжительность промежутка : 40 мс. (1, 00 видеокадр)
    Время предзагрузки промежутка : 500 мс.

    Скриншоты для ознакомления



    Все релизы Нонна Мордюкова в Клубе
    Время раздачи: 24/7 (до появления первых 3-5 скачавших)


    Нонна Мордюкова. Прости меня за любовь (2018) SATRip
    Рейтинг →
     (голосов: 1, оценка 4/5, голосовать можно 1 раз )

    Другие торренты по теме:

  • Нонна Мордюкова. Прости меня за любовь (2018) DVB [H.264 / 1080i-LQ]


    • Комментарии (0):

      Информация

      Информация

        Посетители, находящиеся в группе Гости, не могут оставлять комментарии в данной новости.

        ↓ Меню




        ↓ Опрос

        Вы добавили сайт в закладки?
        Да
        Нет


        Top 10 за месяц (Передачи)