.
Авторизация | Регистрация
Хочешь лучшие торренты? Добавь свой email!
Добавить

Торрент скачать бесплатно

» » Тайны разведки. Английский пациент (2012) SATRip торрент скачать бесплатно


    Тайны разведки. Английский пациент (2012) SATRip торрент скачать бесплатно

    Опубликовал: Админ | Дата: 2-04-2018, 05:00 | .torrent скачали: 0

    Тайны разведки. Английский пациент (2012) SATRipТелекомпания: Россия, ООО ДОК-Синема
    Жанр: Документальный, спецслужбы, история

    Описание

    Александр Литвиненко. Уникальные съемки человека. Который шаг за шагом идет к своей смерти. В этот момент, бывший полковник ФСБ, а теперь политэмигрант, еще не знает, что скоро он будет мучительно умирать в результате отравления сверхдозы радиоактивного вещества Полоний-210. Что же кроется за этой смертью: несчастный случай, политический заказ, месть бывших сослуживцев, а может быть специальная операция иностранных спецслужб при устранении свидетеля, который слишком много знал?
    Релиз от: alf62
    Продолжительность: 00: 42: 25
    Качество видео: SATRip
    Видео: Xvid, 720x400, ~1800 Kbps
    Аудио: AC3, 2 ch, 192 Kbps

    Общее
    Полное имя : E: ЗаписьТайны разведкиАнглийский пациентТайны.разведки.Английский.пациент.2012.XviD.SATRip.alf62.avi
    Формат : AVI
    Формат/Информация : Audio Video Interleave
    Размер файла : 607 Мбайт
    Продолжительность : 42 м.
    Общий поток : 2002 Кбит/сек
    Программа кодирования : VirtualDubMod 1.5.10.3 |www.virtualdub-fr.org|| (build 2550/release)
    Библиотека кодирования : VirtualDubMod build 2550/release
    Видео
    Идентификатор : 0
    Формат : MPEG-4 Visual
    Профиль формата : Advanced Simple@L5
    Параметр BVOP формата : 2
    Параметр QPel формата : Нет
    Параметр GMC формата : Без точки перехода
    Параметр матрицы формата : Default (MPEG)
    Идентификатор кодека : XVID
    Идентификатор кодека/Подсказка : XviD
    Продолжительность : 42 м.
    Битрейт : 1800 Кбит/сек
    Ширина : 720 пикселей
    Высота : 400 пикселей
    Соотношение сторон : 16: 9
    Частота кадров : 25, 000 кадров/сек
    Цветовое пространство : YUV
    Субдискретизация насыщенности : 4: 2: 0
    Битовая глубина : 8 бит
    Тип развёртки : Прогрессивная
    Метод сжатия : С потерями
    Бит/(Пиксели*Кадры) : 0.250
    Размер потока : 546 Мбайт (90%)
    Библиотека кодирования : XviD 73
    Аудио
    Идентификатор : 1
    Формат : AC-3
    Формат/Информация : Audio Coding 3
    Расширение режима : CM (complete main)
    Параметр Endianness формата : Big
    Идентификатор кодека : 2000
    Продолжительность : 42 м.
    Вид битрейта : Постоянный
    Битрейт : 192 Кбит/сек
    Каналы : 2 канала
    Расположение каналов : Front: L R
    Частота : 48, 0 КГц
    Битовая глубина : 16 бит
    Метод сжатия : С потерями
    Размер потока : 58, 2 Мбайт (10%)
    Выравнивание : Разделение по промежуткам
    Продолжительность промежутка : 40 мс. (1, 00 видеокадр)
    Время предзагрузки промежутка : 500 мс.

    Скриншоты для ознакомления





    Все одноименные релизы в Клубе
    Время раздачи: до появления первых 3-5 скачавших


    Тайны разведки. Английский пациент (2012) SATRip
    Рейтинг →
     (голосов: 1, оценка 3/5, голосовать можно 1 раз )

    Другие торренты по теме:

  • Тайны разведки (12 фильмов) (2013) SATRip
  • Под глобусом Зингера. Тайны разведки (2012) WEBRip
  • Мастера технологических диверсий. Тайны разведки (2012) WEBRip
  • Тайны разведки. Штурм дворца Амина (2012) SATRip
  • Тайны разведки. Мина для Хрущева (2014) SATRip
  • Тайны разведки. Морские воины (2012) SATRip
  • Тайны разведки. Между Черчиллем и Сталиным (2012) SATRip
  • Вильям Фишер. Легенда Советской разведки. Тайны Века (2003) WEBRip [H.264]


    • Комментарии (0):

      Информация

      Информация

        Посетители, находящиеся в группе Гости, не могут оставлять комментарии в данной новости.

        ↓ Меню




        ↓ Опрос

        Вы добавили сайт в закладки?
        Да
        Нет


        Top 10 за месяц (Передачи)