.
Авторизация | Регистрация
Хочешь лучшие торренты? Добавь свой email!
Добавить

Торрент скачать бесплатно

» » Время - вперед! О России без грязи и лжи (2016) WEBRip [H.264 / 720p-LQ] (выпусков 41) торрент скачать бесплатно


    Время - вперед! О России без грязи и лжи (2016) WEBRip [H.264 / 720p-LQ] (выпусков 41) торрент скачать бесплатно

    Опубликовал: Админ | Дата: 2-04-2018, 05:00 | .torrent скачали: 0

    Время - вперед! О России без грязи и лжи (2016) WEBRip [H.264 / 720p-LQ] (выпусков 41)Телекомпания: Время - вперед!
    Жанр: Новости, Экономика, Наука, Медицина, Спорт, Культура

    Описание

    Перед вами еженедельная программа позитивных новостей из жизни страны. Мы устали от деструктивной пропаганды, каждый день нам вдалбливают, что Россия деградирует, отстает, и у нас ничего не получится. Но мы знаем, что мы лучше, чем сами привыкли о себе думать. В наших выпусках только правда. В наших выпусках только позитив. В программу входят хорошие новости промышленности, экономики, науки, медицины, спорта и культуры. Каждый выпуск разбивает устаревшие мифы об угасающей России и показывает её истинное прогрессивное и доброе лицо. Мы пропагандисты и не видим в этом ничего плохого, потому что пропагандируем реальные успехи и достижения, и считаем, что это правильно. Сам по себе факт того, что приходится это делать (встречая порою жесткое противодействие) свидетельствует о том, как привыкли мы жить в чернухе и как сильно недооцениваем наши истинные возможности.
    Трейлер:
    YouTube
    Продолжительность: 02: 34: 47 (41 выпуск по ~4 мин)
    Качество видео: WEBRip
    Видео: AVC/H.264, 1280х720, ~980-1552 kbps
    Аудио: AC3, 2 ch, 192 kbps

    Общее
    Полное имя : D: ТоррентыВремя - вперед 2016160112 Не нефтью единой... #175-176.mkv
    Формат : Matroska
    Версия формата : Version 4/Version 2
    Размер файла : 49, 5 Мбайт
    Продолжительность : 4 м. 27 с.
    Общий поток : 1552 Кбит/сек
    Программа кодирования : XviD4PSP 7.0.447 DAILY
    Библиотека кодирования : Lavf57.71.100
    ErrorDetectionType : Per level 1
    ENCODING_INFO : MP4 MKV/H264 COPY Безопасное/AAC-LC AC3 CBR 192kbps
    Видео
    Идентификатор : 1
    Формат : AVC
    Формат/Информация : Advanced Video Codec
    Профиль формата : Main@L3.1
    Настройки формата : CABAC/3 Ref Frames
    Параметр CABAC формата : Да
    Параметр RefFrames формата : 3 кадра
    Идентификатор кодека : V_MPEG4/ISO/AVC
    Продолжительность : 4 м. 27 с.
    Битрейт : 1329 Кбит/сек
    Ширина : 1280 пикселей
    Высота : 720 пикселей
    Соотношение сторон : 16: 9
    Режим частоты кадров : Постоянный
    Частота кадров : 29, 970 (30000/1001) кадров/сек
    Цветовое пространство : YUV
    Субдискретизация насыщенности : 4: 2: 0
    Битовая глубина : 8 бит
    Тип развёртки : Прогрессивная
    Бит/(Пиксели*Кадры) : 0.048
    Размер потока : 42, 4 Мбайт (86%)
    Заголовок : ISO Media file produced by Google Inc.
    Default : Да
    Forced : Нет
    Аудио
    Идентификатор : 2
    Формат : AC-3
    Формат/Информация : Audio Coding 3
    Идентификатор кодека : A_AC3
    Продолжительность : 4 м. 27 с.
    Вид битрейта : Постоянный
    Битрейт : 192 Кбит/сек
    Каналы : 2 канала
    Расположение каналов : Front: L R
    Частота : 44, 1 КГц
    Частота кадров : 28, 711 кадров/сек (1536 SPF)
    Битовая глубина : 16 бит
    Метод сжатия : С потерями
    Размер потока : 6, 13 Мбайт (12%)
    Заголовок : ISO Media file produced by Google Inc.
    ServiceKind/String : Complete Main
    Default : Да
    Forced : Нет

    160112 Не нефтью единой... #175-176 1 329 274 0: 04: 27 51 939 816
    160119 Дауншифтинг по-русски космос, атом, наука #177 1 309 685 0: 04: 13 48 475 920
    160124 Проспали все полимеры... #178 1 186 423 0: 03: 45 39 690 308
    160209 Всевидящее око России #179-180 1 285 451 0: 03: 52 43 827 938
    160215 Челябинский терминатор дал 1 млн. тонн стали #181 1 215 926 0: 03: 38 39 151 444
    160229 На Эверест за 23 сек #182-183 1 117 276 0: 04: 08 41 526 207
    160307 50 лет на одной батарейке #184 1 257 669 0: 03: 53 43 248 588
    160321 Марс будет наш! #185-186 1 223 437 0: 04: 09 45 006 471
    160328 Бесперебойный источник позитива #187 1 403 756 0: 04: 13 51 562 276
    160412 Первые навсегда #188-189 1 188 120 0: 04: 09 43 969 227
    160425 Русская пружина #190-191 1 280 992 0: 04: 03 45 815 724
    160503 Мы построим свой насосный завод #192 1 303 483 0: 04: 06 46 993 608
    160517 Гиперзвуковой Путин #193-194 1 301 880 0: 04: 09 47 553 710
    160524 Сталь и лёд #195 1 305 211 0: 03: 35 41 102 071
    160530 Ворота за 186 млрд. руб. #196 1 132 460 0: 03: 43 37 748 149
    160612 Новости страны-бензоколонки #197 1 422 927 0: 04: 10 51 536 048
    160615 Мечи и орала #198 1 341 467 0: 04: 12 49 338 397
    160628 Хроника изоляции России #199 1 374 836 0: 03: 30 42 129 607
    160712 Нам 200! #200-201 1 202 531 0: 03: 43 39 769 955
    160720 К полёту готов! #202 1 123 726 0: 03: 19 33 524 918
    160802 Ещё больше заводов! #203-204 1 338 461 0: 03: 58 46 556 404
    160808 Мы всё равно победим #205 1 270 402 0: 03: 54 43 706 458
    160817 Образ победы #206 1 434 753 0: 04: 07 51 248 706
    160830 Пламенный мотор #207 1 133 641 0: 04: 06 41 597 725
    160905 Детям – мороженое! #208 1 368 838 0: 03: 28 41 476 021
    160913 Опять всепропало #209 1 226 490 0: 04: 01 43 767 719
    160920 Понастроили тут! #210 1 265 920 0: 04: 11 46 784 787
    160927 Нефть, таблетки и станки #211 1 535 705 0: 04: 32 60 108 290
    161005 Березовский опять отличился #212 1 328 900 0: 04: 12 48 886 895
    161030 Будущее близко #213-214 1 208 441 0: 04: 01 43 055 241
    161104 Роботы идут! #215-216 1 240 177 0: 03: 53 42 688 596
    161107 Русский стоп-кадр #217 1 350 481 0: 04: 04 48 141 549
    161116 Идеальный служака #218 1 316 470 0: 04: 04 46 959 415
    161121 Железный Фёдор полетит в космос #219 1 060 811 0: 04: 09 39 824 303
    161201 Русские машины покоряют Запад #220 1 094 872 0: 04: 31 44 519 934
    161204 150 млрд хищников из России #221 1 473 745 0: 04: 21 55 481 255
    161206 Спецназ России стал невидимым 1 458 390 0: 00: 33 06 950 087
    161208 В России создан подводный Глонасс 1 182 504 0: 00: 33 05 916 424
    161210 Медведева установила новый мировой рекорд 0 979 742 0: 00: 40 05 673 633
    161211 Русский богатырь прибыл в США #222 1 443 587 0: 03: 56 49 282 061
    161218 Россия обогнала Китай #223 1 551 838 0: 04: 36 61 467 558

    Скриншоты для ознакомления






    Все релизы Время - вперед! в Клубе
    Время раздачи: Пн-Пт с 19: 00 до 23: 00, Сб-Вс с 11: 00 до 23: 00


    Время - вперед! О России без грязи и лжи (2016) WEBRip [H.264/720p-LQ] (выпусков 41)
    Рейтинг →
     (голосов: 1, оценка 5/5, голосовать можно 1 раз )

    Другие торренты по теме:

  • БСО Всесоюзного радио и телевидения / Владимир Федосеев - Метель / Время, вперед! (1980) [FLAC 2.0 24 / 192|traks(Vinyl-Rip)]<Classical, Contemporary> скачать через торрент бесплатно
  • Время - вперед! О России без грязи и лжи (2017) WEBRip [H.264 / 720p-LQ]
  • Время - вперед! О России без грязи и лжи (2015) WEBRip [H.264 / 720p-LQ] (выпусков 40)
  • Время - вперед! О России без грязи и лжи (2013) WEBRip [H.264 / 720p-LQ] (выпусков 44)
  • Время - вперед! О России без грязи и лжи (2014) WEBRip [H.264 / 720p-LQ] (выпусков 36)


    • Комментарии (0):

      Информация

      Информация

        Посетители, находящиеся в группе Гости, не могут оставлять комментарии в данной новости.

        ↓ Меню




        ↓ Опрос

        Вы добавили сайт в закладки?
        Да
        Нет


        Top 10 за месяц (Передачи)