.
Авторизация | Регистрация
Хочешь лучшие торренты? Добавь свой email!
Добавить

Торрент скачать бесплатно

  • support: webmaster@btracker.org
» » Время - вперед! О России без грязи и лжи (2015) WEBRip [H.264 / 720p-LQ] (выпусков 40) торрент скачать бесплатно


    Время - вперед! О России без грязи и лжи (2015) WEBRip [H.264 / 720p-LQ] (выпусков 40) торрент скачать бесплатно

    Опубликовал: Админ | Дата: 2-04-2018, 05:00 | .torrent скачали: 0

    Время - вперед! О России без грязи и лжи (2015) WEBRip [H.264 / 720p-LQ] (выпусков 40)Телекомпания: Время - вперед!
    Жанр: Новости, Экономика, Наука, Медицина, Спорт, Культура

    Описание

    Перед вами еженедельная программа позитивных новостей из жизни страны. Мы устали от деструктивной пропаганды, каждый день нам вдалбливают, что Россия деградирует, отстает, и у нас ничего не получится. Но мы знаем, что мы лучше, чем сами привыкли о себе думать. В наших выпусках только правда. В наших выпусках только позитив. В программу входят хорошие новости промышленности, экономики, науки, медицины, спорта и культуры. Каждый выпуск разбивает устаревшие мифы об угасающей России и показывает её истинное прогрессивное и доброе лицо. Мы пропагандисты и не видим в этом ничего плохого, потому что пропагандируем реальные успехи и достижения, и считаем, что это правильно. Сам по себе факт того, что приходится это делать (встречая порою жесткое противодействие) свидетельствует о том, как привыкли мы жить в чернухе и как сильно недооцениваем наши истинные возможности.
    Трейлер
    YouTube
    Продолжительность: 02: 56: 28 (40 выпусков по ~4 мин)
    Качество видео: WEBRip
    Видео: AVC/H.264, 1280х720, ~1105-1817 kbps
    Аудио: AC3, 2 ch, 192 kbps

    Общее
    Полное имя : D: ТоррентыВремя - вперед 2015151228 Кто сказал, что мы плохо жили. Итоги 2015.mkv
    Формат : Matroska
    Версия формата : Version 4/Version 2
    Размер файла : 53, 2 Мбайт
    Продолжительность : 4 м. 30 с.
    Общий поток : 1651 Кбит/сек
    Программа кодирования : XviD4PSP 7.0.447 DAILY
    Библиотека кодирования : Lavf57.71.100
    ErrorDetectionType : Per level 1
    ENCODING_INFO : MP4 MKV/H264 COPY Безопасное/AAC-LC AC3 CBR 192kbps
    Видео
    Идентификатор : 1
    Формат : AVC
    Формат/Информация : Advanced Video Codec
    Профиль формата : Main@L3.1
    Настройки формата : CABAC/3 Ref Frames
    Параметр CABAC формата : Да
    Параметр RefFrames формата : 3 кадра
    Идентификатор кодека : V_MPEG4/ISO/AVC
    Продолжительность : 4 м. 30 с.
    Битрейт : 1426 Кбит/сек
    Ширина : 1280 пикселей
    Высота : 720 пикселей
    Соотношение сторон : 16: 9
    Режим частоты кадров : Постоянный
    Частота кадров : 29, 970 (30000/1001) кадров/сек
    Цветовое пространство : YUV
    Субдискретизация насыщенности : 4: 2: 0
    Битовая глубина : 8 бит
    Тип развёртки : Прогрессивная
    Бит/(Пиксели*Кадры) : 0.052
    Размер потока : 45, 9 Мбайт (86%)
    Заголовок : ISO Media file produced by Google Inc.
    Default : Да
    Forced : Нет
    Аудио
    Идентификатор : 2
    Формат : AC-3
    Формат/Информация : Audio Coding 3
    Идентификатор кодека : A_AC3
    Продолжительность : 4 м. 30 с.
    Вид битрейта : Постоянный
    Битрейт : 192 Кбит/сек
    Каналы : 2 канала
    Расположение каналов : Front: L R
    Частота : 44, 1 КГц
    Частота кадров : 28, 711 кадров/сек (1536 SPF)
    Битовая глубина : 16 бит
    Метод сжатия : С потерями
    Размер потока : 6, 18 Мбайт (12%)
    Заголовок : ISO Media file produced by Google Inc.
    ServiceKind/String : Complete Main
    Default : Да
    Forced : Нет

    150118 Время - вперёд! #125-126.mkv 1 397 187 0: 04: 05 49 670 005
    150125 Время - вперёд! #127.mkv 1 251 574 0: 04: 11 46 324 408
    150201 Время - вперёд! #128.mkv 1 665 158 0: 04: 15 60 586 220
    150208 Время - вперёд! #129.mkv 1 491 439 0: 04: 15 54 933 990
    150215 Время - вперёд! #130.mkv 1 588 631 0: 04: 03 55 337 006
    150222 Время - вперёд! #131.mkv 1 409 090 0: 04: 59 61 151 344
    150302 Время - вперёд! #132.mkv 1 503 379 0: 03: 49 49 660 224
    150315 Время - вперёд! #133-134.mkv 1 240 633 0: 04: 35 50 408 907
    150323 Время - вперёд! #135.mkv 1 245 757 0: 04: 36 50 742 490
    150330 Время - вперёд! #136.mkv 1 105 798 0: 06: 46 67 277 516
    150406 Время - вперёд! #137.mkv 1 315 501 0: 04: 28 51 697 172
    150414 Время - вперёд! #138.mkv 1 304 654 0: 04: 30 51 631 009
    150427 Время - вперёд! #139-140.mkv 1 267 785 0: 05: 42 63 684 960
    150503 Время - вперёд! #141.mkv 1 394 554 0: 04: 15 51 730 127
    150518 Время - вперёд! #142-143.mkv 1 516 738 0: 04: 04 53 330 496
    150525 Время - вперёд! #144.mkv 1 111 941 0: 03: 46 37 736 742
    150601 Время - вперёд! #145.mkv 1 433 738 0: 04: 05 50 855 715
    150608 Время - вперёд! #146.mkv 1 380 307 0: 04: 05 49 184 303
    150615 Время - вперёд! #147.mkv 1 199 310 0: 04: 24 46 983 324
    150629 Время - вперёд! #148-149.mkv 1 123 201 0: 04: 36 46 364 656
    150706 Время - вперёд! #150.mkv 1 197 428 0: 04: 02 42 982 109
    150720 Время - вперёд! #151-152.mkv 1 816 520 0: 05: 03 77 783 285
    150803 Время - вперёд! #153-154.mkv 1 774 238 0: 04: 36 69 437 749
    150810 Время - вперёд! #155.mkv 1 133 821 0: 04: 48 48 788 423
    150823 Время - вперёд! #156-157.mkv 1 217 229 0: 04: 49 52 095 695
    150830 Россия будет работать на таблетки #158.mkv 1 366 725 0: 04: 33 54 457 953
    150907 Россия строит города будущего #159.mkv 1 391 045 0: 04: 06 49 808 514
    150915 Неделя новых заводов в России #160.mkv 1 184 916 0: 04: 07 43 549 117
    150921 Россия подсадит мир на атомную иглу #161.mkv 1 479 193 0: 04: 05 52 262 724
    150928 Роботы, ракеты, золото и Арктика #162.mkv 1 255 531 0: 04: 02 44 818 122
    151005 1000 новых станков в год #163.mkv 1 503 143 0: 04: 28 58 124 505
    151012 Российские роботы покорили Японию #164.mkv 1 112 968 0: 03: 58 39 656 308
    151026 В России появился свой -Скайнет- #165-166.mkv 1 244 436 0: 03: 58 43 645 049
    151110 Россия готовится к взлёту #167-168.mkv 1 171 178 0: 04: 22 45 585 318
    151116 Покупаем золото, продаём доллары #169.mkv 1 270 978 0: 04: 00 44 886 994
    151125 Плутон становится ближе #170.mkv 1 156 343 0: 04: 31 46 622 457
    151201 Обновляем старое, строим новое #171.mkv 1 270 405 0: 04: 33 50 956 270
    151214 Русь ушла на дно #172-173.mkv 1 193 344 0: 04: 07 43 735 660
    151221 Новые заводы, дороги и подлодки #174.mkv 1 194 359 0: 04: 21 46 249 621
    151228 Кто сказал, что мы плохо жили. Итоги 2015.mkv 1 425 758 0: 04: 30 55 737 020

    Скриншоты для ознакомления











    Все одноименные релизы в Клубе
    Время раздачи: Пн-Пт с 19: 00 до 23: 00, Сб-Вс с 11: 00 до 23: 00 (до появления первых 3-5 скачавших)


    Время - вперед! О России без грязи и лжи (2015) WEBRip [H.264/720p-LQ] (выпусков 40)
    Рейтинг →
     (голосов: 1, оценка 3/5, голосовать можно 1 раз )

    Другие торренты по теме:

  • БСО Всесоюзного радио и телевидения / Владимир Федосеев - Метель / Время, вперед! (1980) [FLAC 2.0 24 / 192|traks(Vinyl-Rip)]<Classical, Contemporary> скачать через торрент бесплатно
  • Время - вперед! О России без грязи и лжи (2017) WEBRip [H.264 / 720p-LQ]
  • Время - вперед! О России без грязи и лжи (2016) WEBRip [H.264 / 720p-LQ] (выпусков 41)
  • Время - вперед! О России без грязи и лжи (2013) WEBRip [H.264 / 720p-LQ] (выпусков 44)
  • Время - вперед! О России без грязи и лжи (2014) WEBRip [H.264 / 720p-LQ] (выпусков 36)


    • Комментарии (0):

      Информация

      Информация

        Посетители, находящиеся в группе Гости, не могут оставлять комментарии в данной новости.

        ↓ Меню




        ↓ Опрос

        Вы добавили сайт в закладки?
        Да
        Нет


        Top 10 за месяц (Передачи)