.
Авторизация | Регистрация
Хочешь лучшие торренты? Добавь свой email!
Добавить

Торрент скачать бесплатно

» » Интервью Евгения Федорова австралийскому телеканалу ABC (16.03.2018) WEBRip [H.264 / 720p-LQ] торрент скачать бесплатно


    Интервью Евгения Федорова австралийскому телеканалу ABC (16.03.2018) WEBRip [H.264 / 720p-LQ] торрент скачать бесплатно

    Опубликовал: Админ | Дата: 2-04-2018, 05:00 | .torrent скачали: 0

    Интервью Евгения Федорова австралийскому телеканалу ABC (16.03.2018) WEBRip [H.264 / 720p-LQ]Телекомпания: Телевидение Национально-Освободительного Движения
    Жанр: Политика

    Описание

    Депутат Государственной Думы России, координатор Национально-Освободительного Движения Евгений Федоров ответил на вопросы журналистов австралийского телеканала ABC:
    Почему нужно поддерживать Путина на выборах?
    Чем отличается Путин от других кандидатов?
    Прогноз для России на следующие 6 лет.
    Может ли Путин быть президентом ещё 10 - 20 лет?
    Отравление Скрипаля. Кто заинтересован в конфликте?
    Ответные меры России.
    Вернемся ли мы к новой Холодной войне?
    Будут ли высылать британских дипломатов?
    Прогноз по развитию конфликты России и Запада.
    Продолжительность: 00: 14: 44
    Качество видео: WEBRip
    Субтитры: отсутствуют
    Видео: AVC/H.264, 1280x720 (16: 9), ~1226 Kbps
    Аудио: AAC, 2 ch, 126 Kbps

    General
    Unique ID : 253118952252049075703022597409366527795 (0xBE6CEFDCD59684B0E0004684739ECF33)
    Complete name : D: FilmИнтервью Евгения Федорова австралийскому телеканалу ABC.mkv
    Format : Matroska
    Format version : Version 4/Version 2
    File size : 143 MiB
    Duration : 14 min 44 s
    Overall bit rate mode : Variable
    Overall bit rate : 1 360 kb/s
    Encoded date : UTC 2018-04-01 20: 16: 42
    Writing application : mkvmerge v22.0.0 (\'At The End Of The World\') 64-bit
    Writing library : libebml v1.3.5 + libmatroska v1.4.8
    Cover : Yes
    Attachments : cover.png
    Video
    ID : 1
    Format : AVC
    Format/Info : Advanced Video Codec
    Format profile : High@L4.1
    Format settings : CABAC/3 Ref Frames
    Format settings, CABAC : Yes
    Format settings, ReFrames : 3 frames
    Format settings, GOP : M=3, N=33
    Codec ID : V_MPEG4/ISO/AVC
    Duration : 14 min 44 s
    Bit rate mode : Variable
    Bit rate : 1 226 kb/s
    Maximum bit rate : 19.2 Mb/s
    Width : 1 280 pixels
    Height : 720 pixels
    Display aspect ratio : 16: 9
    Frame rate mode : Constant
    Frame rate : 25.000 FPS
    Standard : PAL
    Color space : YUV
    Chroma subsampling : 4: 2: 0
    Bit depth : 8 bits
    Scan type : Progressive
    Bits/(Pixel*Frame) : 0.053
    Stream size : 129 MiB (90%)
    Language : Russian
    Default : No
    Forced : No
    Color range : Limited
    Color primaries : BT.709
    Transfer characteristics : BT.709
    Matrix coefficients : BT.709
    Audio
    ID : 2
    Format : AAC
    Format/Info : Advanced Audio Codec
    Format profile : LC
    Codec ID : A_AAC-2
    Duration : 14 min 44 s
    Bit rate : 126 kb/s
    Channel(s) : 2 channels
    Channel positions : Front: L R
    Sampling rate : 44.1 kHz
    Frame rate : 43.066 FPS (1024 SPF)
    Compression mode : Lossy
    Stream size : 13.2 MiB (9%)
    Language : Russian
    Default : Yes
    Forced : No

    Скриншоты для ознакомления





    Все одноименные релизы в Клубе
    Время раздачи: 23: 00-02: 00 (до появления первых 3-5 скачавших)


    Интервью Евгения Федорова австралийскому телеканалу ABC (16.03.2018) WEBRip [H.264/720p-LQ]
    Рейтинг →
     (голосов: 1, оценка 4/5, голосовать можно 1 раз )

    Другие торренты по теме:

  • Запрещенное на ТВ интервью Евгения Федорова (2013) WEBRip [H.264]


    • Комментарии (0):

      Информация

      Информация

        Посетители, находящиеся в группе Гости, не могут оставлять комментарии в данной новости.

        ↓ Меню




        ↓ Опрос

        Вы добавили сайт в закладки?
        Да
        Нет


        Top 10 за месяц (Передачи)