.
Авторизация | Регистрация
Хочешь лучшие торренты? Добавь свой email!
Добавить

Торрент скачать бесплатно

» » Дикий Тихий океан / The Wild Pacific (2016) UHD BDRemux [H.265 / 2160p] [4K, SDR, 10-bit] [DE, EN] торрент скачать бесплатно


    Дикий Тихий океан / The Wild Pacific (2016) UHD BDRemux [H.265 / 2160p] [4K, SDR, 10-bit] [DE, EN] торрент скачать бесплатно

    Опубликовал: Админ | Дата: 2-04-2018, 05:00 | .torrent скачали: 2

    Дикий Тихий океан / The Wild Pacific (2016) UHD BDRemux [H.265 / 2160p] [4K, SDR, 10-bit] [DE, EN]Производство: США, 3DigitalVision
    Жанр: Документальный, фауна, видовой, релакс
    Режиссер: Майкл Вакулонис

    Описание

    Тихий океан покрывает одну треть нашей планеты, что по площади больше всех континентов. В течение более 200 миллионов лет он изобилует жизнью, порождает новые виды и запускает глобальные погодные процессы. Эта потрясающая система поражает своими течениями, которые струясь по лесам водорослей, коралловым рифам и подводным горам, с акулами, китами, морскими львами и косяками рыб, вырывается из огромной океанической пустыни.

    Продолжительность: 00: 52: 11
    Качество видео: UHD BDRemux (SDR)
    Перевод: Отсутствует
    Язык озвучки: Немецкий, английский
    Субтитры: отсутствуют
    Видео: HEVC/H.265, 3840x2160, ~55.0 Mbps
    Аудио#1: DTS-HD MA, 6 ch, 2048 Kbps | German
    Аудио#2: DTS-HD MA, 6 ch, 1978 Kbps | English
    Исходный диск на Blu-ray.com
    Просмотр 4K HDR-контента на ПК

    Общее
    Уникальный идентификатор : 203443814369747778266335299525030107622 (0x990DDA790B9C6BCFD264272B6DEED9E6)
    Полное имя : F: КИНОDer.wilde.Pazifik.Die.Schoenheit.des.Lebens.2015.German.DTSHD.DL.2160p.UHD.BluRay.SDR.HEVC.Remux-SpaceHD13.mkv
    Формат : Matroska
    Версия формата : Version 4/Version 2
    Размер файла : 21, 5 Гбайт
    Продолжительность : 52 м. 11 с.
    Общий поток : 59, 1 Мбит/сек
    Дата кодирования : UTC 2018-04-01 10: 41: 58
    Программа кодирования : mkvmerge v20.0.0 (\'I Am The Sun\') 64-bit
    Библиотека кодирования : libebml v1.3.5 + libmatroska v1.4.8
    Видео
    Идентификатор : 1
    Формат : HEVC
    Формат/Информация : High Efficiency Video Coding
    Профиль формата : Main10@L5.1@High
    Идентификатор кодека : V_MPEGH/ISO/HEVC
    Продолжительность : 52 м. 11 с.
    Битрейт : 55, 0 Мбит/сек
    Ширина : 3840 пикселей
    Высота : 2160 пикселей
    Соотношение сторон : 16: 9
    Режим частоты кадров : Постоянный
    Частота кадров : 23, 976 (24000/1001) кадра/сек
    Частота кадров в оригинале : 23, 976 (23976/1000) кадра/сек
    Стандарт вещания : Component
    Цветовое пространство : YUV
    Субдискретизация насыщенности : 4: 2: 0
    Битовая глубина : 10 бит
    Бит/(Пиксели*Кадры) : 0.277
    Размер потока : 20, 1 Гбайт (93%)
    Заголовок : Der.wilde.Pazifik.Die.Schoenheit.des.Lebens.2015.German.DTSHD.DL.2160p.UHD.BluRay.SDR.HEVC.Remux-SpaceHD13
    Язык : German
    Default : Да
    Forced : Нет
    Цветовой диапазон : Limited
    Основные цвета : BT.709
    Характеристики трансфера : BT.709
    Коэффициенты матрицы : BT.709
    Аудио #1
    Идентификатор : 2
    Формат : DTS
    Формат/Информация : Digital Theater Systems
    Профиль формата : MA/Core
    Идентификатор кодека : A_DTS
    Продолжительность : 52 м. 11 с.
    Вид битрейта : Переменный/Постоянный
    Битрейт : 2048 Кбит/сек/1152 Кбит/сек
    Каналы : 6 каналов
    Расположение каналов : Front: L C R, Side: L R, LFE
    Частота : 48, 0 КГц
    Частота кадров : 93, 750 кадра/сек (512 SPF)
    Битовая глубина : 16 бит
    Метод сжатия : Без потерь/Lossy
    Размер потока : 771 Мбайт (3%)
    Заголовок : Deutsch DTS-HD MA 5.1
    Язык : German
    Default : Да
    Forced : Нет
    Аудио #2
    Идентификатор : 3
    Формат : DTS
    Формат/Информация : Digital Theater Systems
    Профиль формата : MA/Core
    Идентификатор кодека : A_DTS
    Продолжительность : 52 м. 11 с.
    Вид битрейта : Переменный/Постоянный
    Битрейт : 1978 Кбит/сек/1152 Кбит/сек
    Каналы : 6 каналов
    Расположение каналов : Front: L C R, Side: L R, LFE
    Частота : 48, 0 КГц
    Частота кадров : 93, 750 кадра/сек (512 SPF)
    Битовая глубина : 16 бит
    Метод сжатия : Без потерь/Lossy
    Размер потока : 738 Мбайт (3%)
    Заголовок : English DTS-HD MA 5.1
    Язык : English
    Default : Нет
    Forced : Нет
    Меню
    00: 00: 00.000 : en: Chapter 01
    00: 01: 01.811 : en: Chapter 02
    00: 07: 53.932 : en: Chapter 03
    00: 20: 34.526 : en: Chapter 04
    00: 32: 30.075 : en: Chapter 05
    00: 43: 56.344 : en: Chapter 06
    YouTube


    Дикий Тихий океан/The Wild Pacific (2016) UHD BDRemux [H.265/2160p] [4K, SDR, 10-bit] [DE, EN]
    Рейтинг →
     (голосов: 1, оценка 4/5, голосовать можно 1 раз )

    Другие торренты по теме:

  • Дикий, дикий Запад / Wild Wild West (1999) BDRip скачать через торрент бесплатно
  • Василий Головачев | Дикий, дикий Норд (2017) [FB2]
  • National Geographic. Дикий Нил / Wild Nile (Серии: 1-3 из 3) (2014) HDTVRip
  • Шериф Келли и Дикий Запад / Sheriff Callies Wild West (2013) SATRip (1 сезон, 13 серий из 21)
  • NG. Дикий Нил / Wild Nile (2014) HDTVRip [H.264 / 720p] (1-3 серии из 3) скачать через торрент бесплатно
  • NG. Дикая Канада: Дикий Запад / Wild Canada. The Wild West (2014) HDTVRip [H.264 / 720p]
  • Wallpapers - Этот Дикий Запад [JPEG] скачать через торрент бесплатно
  • Дикий Билл / Wild Bill (2011) HDRip [576p] iPad


    • Комментарии (0):

      Информация

      Информация

        Посетители, находящиеся в группе Гости, не могут оставлять комментарии в данной новости.

        ↓ Меню




        ↓ Опрос

        Вы добавили сайт в закладки?
        Да
        Нет


        Top 10 за месяц (Передачи)