.
Авторизация | Регистрация
Хочешь лучшие торренты? Добавь свой email!
Добавить

Торрент скачать бесплатно

» » Голос. Дети (2018) HDTV [H.264 / 1080i-LQ] (Сезон 5, Выпуск 8) торрент скачать бесплатно


    Голос. Дети (2018) HDTV [H.264 / 1080i-LQ] (Сезон 5, Выпуск 8) торрент скачать бесплатно

    Опубликовал: Админ | Дата: 2-04-2018, 05:00 | .torrent скачали: 1

    Голос. Дети (2018) HDTV [H.264 / 1080i-LQ] (Сезон 5, Выпуск 8)Телекомпания: Первый канал HD
    Жанр: Телепередача, ТВ-шоу
    Ведущие: Дмитрий Нагиев и Агата Муцениеце
    Жюри: Валерий Меладзе, Пелагея, Баста.

    Описание

    Суперпроект Голос Дети, отличающийся от привычных вокальных конкурсов и шоу по поиску музыкальных талантов. Незаурядные вокальные данные – единственный способ попасть в проект, получить уникальный шанс пройти через сито музыкальных дуэлей с конкурентами и влюбить в себя миллионы телезрителей.
    ПРАВИЛА ШОУ Голос Дети состоит из трех этапов:
    - Первый этап Слепые прослушивания: (завершен)
    Участники выступают по одному с живым аккомпанементом.
    Наставники не видят участников, но слышат и оценивают их голоса.
    - Второй этап Поединки: (три команды по 15 участников)
    Наставники передают участникам свое мастерство, помогают осваивать сцену, но при этом они должны выбрать лучших. Участники соревнуются между собой.
    - Третий этап Финал:
    6 лучших участников проекта - по двое из каждой команды.
    Финал - участвуют 3 лучших полуфиналиста.
    Продолжительность: 01: 31: 00
    Качество видео: HDTV (16: 9)
    Видео: AVC/H.264, 1920x1080 ~8557 Kbps
    Аудио: MP2, 2 ch, 192 Kbps

    Общее
    Идентификатор : 1 (0x1)
    Полное имя : W: VoiceDetiГолос. Дети. Сезон 5. Выпуск 08 (2018.03.30)_1080.ts
    Формат : MPEG-TS
    Размер файла : 5, 86 Гбайт
    Продолжительность : 1 ч. 31 м.
    Режим общего битрейта : Переменный
    Общий поток : 9206 Кбит/сек
    Видео
    Идентификатор : 256 (0x100)
    Идентификатор меню : 1 (0x1)
    Формат : AVC
    Формат/Информация : Advanced Video Codec
    Профиль формата : High@L4
    Настройки формата : CABAC/4 Ref Frames
    Параметр CABAC формата : Да
    Параметр RefFrames формата : 4 кадра
    Идентификатор кодека : 27
    Продолжительность : 1 ч. 31 м.
    Битрейт : 8557 Кбит/сек
    Ширина : 1920 пикселей
    Высота : 1080 пикселей
    Соотношение сторон : 16: 9
    Частота кадров : 25, 000 кадров/сек
    Стандарт вещания : Component
    Цветовое пространство : YUV
    Субдискретизация насыщенности : 4: 2: 0
    Битовая глубина : 8 бит
    Тип развёртки : Чересстрочная
    Метод сохранения типа развёртки : Раздельные поля
    Порядок развёртки : Верхнее поле первое
    Бит/(Пиксели*Кадры) : 0.165
    Размер потока : 5, 44 Гбайт (93%)
    Цветовой диапазон : Limited
    Основные цвета : BT.709
    Характеристики трансфера : BT.709
    Коэффициенты матрицы : BT.709
    Аудио
    Идентификатор : 257 (0x101)
    Идентификатор меню : 1 (0x1)
    Формат : MPEG Audio
    Версия формата : Version 1
    Профиль формата : Layer 2
    Идентификатор кодека : 3
    Продолжительность : 1 ч. 31 м.
    Вид битрейта : Постоянный
    Битрейт : 192 Кбит/сек
    Каналы : 2 канала
    Частота : 48, 0 КГц
    Частота кадров : 41, 667 кадра/сек (1152 SPF)
    Метод сжатия : С потерями
    Задержка видео : -1 с. 73 мс.
    Размер потока : 125 Мбайт (2%)
    Меню
    Идентификатор : 4096 (0x1000)
    Идентификатор меню : 1 (0x1)
    Продолжительность : 1 ч. 31 м.
    Список : 256 (0x100) (AVC)/257 (0x101) (MPEG Audio)
    Название сервиса : Service01
    Поставщик сервиса : FFmpeg
    Тип сервиса : digital television


    Голос. Дети (2018) HDTV [H.264/1080i-LQ] (Сезон 5, Выпуск 8)
    Рейтинг →
     (голосов: 1, оценка 5/5, голосовать можно 1 раз )

    Другие торренты по теме:

  • Голос. Дети. Сезон №2. Выпуск №1 (2015.02.13) HDTVRip [H.264 / 720p-LQ] скачать через торрент бесплатно
  • Голос. Дети. Сезон №2. Выпуск №1 (2015.02.13) HDTV [H.264 / 1080i] скачать через торрент бесплатно
  • Голос. Дети. Сезон №2. Выпуск №1 (2015.02.13) SATRip скачать через торрент бесплатно
  • Голос. Дети. Сезон №2. Выпуск №2 (2015.02.20) HDTV [H.264 / 1080i] скачать через торрент бесплатно
  • Голос. Дети. Сезон №2. Выпуск №2 (2015.02.20) SATRip скачать через торрент бесплатно
  • Голос. Дети. Сезон №2. Выпуск №2 (2015.02.21) HDTVRip [H.264 / 720p-LQ]
  • Голос. Дети. Сезон №2. Лучшее (2015.04.24) SATRip скачать через торрент бесплатно
  • Голос. Дети (2016.02.20) HDTV [H.264 / 1080i] (сезон 3, выпуск 1)


    • Комментарии (0):

      Информация

      Информация

        Посетители, находящиеся в группе Гости, не могут оставлять комментарии в данной новости.

        ↓ Меню




        ↓ Опрос

        Вы добавили сайт в закладки?
        Да
        Нет


        Top 10 за месяц (Передачи)