.
Авторизация | Регистрация
Хочешь лучшие торренты? Добавь свой email!
Добавить

Торрент скачать бесплатно

  • support: webmaster@btracker.org
» » Главная дорога (31.03.2018) SATRip торрент скачать бесплатно


    Главная дорога (31.03.2018) SATRip торрент скачать бесплатно

    Опубликовал: Админ | Дата: 1-04-2018, 05:00 | .torrent скачали: 0

    Главная дорога (31.03.2018) SATRipТелекомпания: НТВ
    Жанр: Телепередача

    Описание

    Ведущие программы Денис Юченков и Андрей Федорцов расскажут, можно ли сэкономить на дорогом топливе, выбирая между 92-м и 95-м, и выяснят, как октановое число влияет на мощность, расход современных моторов и содержимое кошелька автовладельцев.
    Тем временем на полигоне Главной дороги актёр и режиссёр Дня выборов Олег Фомин научится выходить из заноса и поможет понять, что делать, если машина вдруг закрутилась или поскользнулась на ровном месте.
    Главная дорога — первая на российском телевидении информационная программа обо всем, что происходит на дорогах страны. Это полчаса полезной информации не только для автолюбителей, но и для пешеходов. В постоянной рубрике Испытано на себе зрителей ждут наглядные советы, как вести себя в сложных ситуациях на дорогах. Сложнейший курс контраварийной подготовки, адаптированный для массового зрителя, научит водителей уверенно держаться за рулем.
    Релиз от: RiperAM
    Продолжительность: 00: 32: 37
    Качество видео: SATRip
    Видео: Xvid, 720x448, ~1800 kbps
    Аудио: MP3, 2 ch, 128 Kbps

    Общее
    Полное имя : Главная дорога.(2018.03.31).SATRip.avi
    Формат : AVI
    Формат/Информация : Audio Video Interleave
    Размер файла : 452 Мбайт
    Продолжительность : 32 м.
    Общий поток : 1938 Кбит/сек
    Программа кодирования : VirtualDubMod 1.5.10.3 |www.virtualdub-fr.org|| (build 2550/release)
    Библиотека кодирования : VirtualDubMod build 2550/release
    Видео
    Идентификатор : 0
    Формат : MPEG-4 Visual
    Профиль формата : Advanced Simple@L5
    Параметр BVOP формата : 2
    Параметр QPel формата : Нет
    Параметр GMC формата : Без точки перехода
    Параметр матрицы формата : Default (MPEG)
    Идентификатор кодека : XVID
    Идентификатор кодека/Подсказка : XviD
    Продолжительность : 32 м.
    Битрейт : 1800 Кбит/сек
    Ширина : 720 пикселей
    Высота : 448 пикселей
    Соотношение сторон : 16: 10
    Частота кадров : 25, 000 кадров/сек
    Цветовое пространство : YUV
    Субдискретизация насыщенности : 4: 2: 0
    Битовая глубина : 8 бит
    Тип развёртки : Прогрессивная
    Метод сжатия : С потерями
    Бит/(Пиксели*Кадры) : 0.223
    Размер потока : 420 Мбайт (93%)
    Библиотека кодирования : XviD 73
    Аудио
    Идентификатор : 1
    Формат : MPEG Audio
    Версия формата : Version 1
    Профиль формата : Layer 3
    Идентификатор кодека : 55
    Идентификатор кодека/Подсказка : MP3
    Продолжительность : 32 м.
    Вид битрейта : Постоянный
    Битрейт : 128 Кбит/сек
    Каналы : 2 канала
    Частота : 48, 0 КГц
    Метод сжатия : С потерями
    Размер потока : 29, 9 Мбайт (7%)
    Выравнивание : Соединение по промежуткам
    Продолжительность промежутка : 40 мс. (1, 00 видеокадр)
    Время предзагрузки промежутка : 504 мс.
    Библиотека кодирования : LAME3.99r
    Настройки программы : -m s -V 4 -q 2 -lowpass 17 -b 128

    Скриншоты для ознакомления



    Все одноименные релизы в Клубе
    Время раздачи: 24/7 (до появления первых 3-5 скачавших)


    Главная дорога (31.03.2018) SATRip
    Рейтинг →
     (голосов: 1, оценка 4/5, голосовать можно 1 раз )

    Другие торренты по теме:

  • Главная дорога (27.09.2014) DVB
  • Главная дорога (27.09.2014) SATRip
  • Главная дорога (04.10.2014) DVB скачать через торрент бесплатно
  • Главная дорога (11.10.2014) DVB скачать через торрент бесплатно
  • Главная дорога (11.10.2014) SATRip скачать через торрент бесплатно
  • Главная дорога (18.10.2014) DVB
  • Главная дорога (18.10.2014) SATRip
  • Главная дорога (25.10.2014) SATRip скачать через торрент бесплатно


    • Комментарии (0):

      Информация

      Информация

        Посетители, находящиеся в группе Гости, не могут оставлять комментарии в данной новости.

        ↓ Меню




        ↓ Опрос

        Вы добавили сайт в закладки?
        Да
        Нет


        Top 10 за месяц (Передачи)