.
Авторизация | Регистрация
Хочешь лучшие торренты? Добавь свой email!
Добавить

Торрент скачать бесплатно

» » Времена года / Les Saisons (2015) BDRemux [H.264 / 1080p] торрент скачать бесплатно


    Времена года / Les Saisons (2015) BDRemux [H.264 / 1080p] торрент скачать бесплатно

    Опубликовал: Админ | Дата: 1-04-2018, 05:00 | .torrent скачали: 1

    Времена года / Les Saisons (2015) BDRemux [H.264 / 1080p]Производство: Франция, Германия, France 2 Cineeema, Galatee Films, Pandora Filmproduktion GmbH, Pathe
    Жанр: Документальный, фауна, флора
    Режиссер: Жак Перрен, Жак Клюзо

    Описание

    Тысячу лет назад Европа была покрыта бесконечными лесами, где безраздельно правили зубры, лисы, волки, лоси и олени. Их королевством была первобытная непролазная чаща, которая простиралась через весь континент. Сердце её находилось в Беловежской пуще — теперь, пожалуй, единственном сохранившемся её фрагменте. В этом таинственном лесу разворачивается невероятная история самой дикой и ещё нетронутой рукой человека природы.
    Фильм Времена года продолжает популярный природоведческий цикл режиссёров Жака Перрена и Жака Клюзо, начатый документальными блокбастерами Птицы и Океаны. На этот раз авторы приглашают в необычный мир реликтовой пущи, чтобы глазами её обитателей показать нам историю природы, нашего континента и человека от ледникового периода до настоящего времени.
    Великолепный красивейший фильм, на который была потрачена беспрецедентная сумма в 33 миллиона евро, не оставит вас равнодушными.

    Продолжительность: 01: 36: 02
    Качество видео: BDRemux
    Перевод: Одноголосый закадровый, профессиональный
    Субтитры: русские (Ю.Онищенко), русские (DeTorquemada), французские
    Видео: AVC/H.264, 1920x1080, ~32.0 Mbps
    Аудио#1: DTS HD-MA, 8 ch, 4904 Kbps| Русский (Юрий Сербин)
    Аудио#2: AC3, 6 ch, 640 Kbps | Русский (Ю.Онищенко)
    Аудио#3: AC3, 6 ch, 640 Kbps | French

    Общее
    Уникальный идентификатор : 59420187231403085640842620576060329043 (0x2CB3E96B011799157C322B0704A2CC53)
    Полное имя : F: КИНОВРЕМЕНА ГОДА.mkv
    Формат : Matroska
    Версия формата : Version 4/Version 2
    Размер файла : 25, 5 Гбайт
    Продолжительность : 1 ч. 36 м.
    Режим общего битрейта : Переменный
    Общий поток : 38, 1 Мбит/сек
    Название фильма : Les Saisons.(2015).BDRip.720p.denis100
    Дата кодирования : UTC 2018-03-30 19: 52: 49
    Программа кодирования : mkvmerge v21.0.0 (\'Tardigrades Will Inherit The Earth\') 64-bit
    Библиотека кодирования : libebml v1.3.5 + libmatroska v1.4.8
    Видео
    Идентификатор : 1
    Формат : AVC
    Формат/Информация : Advanced Video Codec
    Профиль формата : High@L4.1
    Настройки формата : CABAC/3 Ref Frames
    Параметр CABAC формата : Да
    Параметр RefFrames формата : 3 кадра
    Идентификатор кодека : V_MPEG4/ISO/AVC
    Продолжительность : 1 ч. 36 м.
    Вид битрейта : Переменный
    Битрейт : 32, 0 Мбит/сек
    Максимальный битрейт : 35, 0 Мбит/сек
    Ширина : 1920 пикселей
    Высота : 1080 пикселей
    Соотношение сторон : 16: 9
    Режим частоты кадров : Постоянный
    Частота кадров : 24, 000 кадра/сек
    Цветовое пространство : YUV
    Субдискретизация насыщенности : 4: 2: 0
    Битовая глубина : 8 бит
    Тип развёртки : Прогрессивная
    Бит/(Пиксели*Кадры) : 0.643
    Размер потока : 21, 4 Гбайт (84%)
    Заголовок : Les Saisons
    Библиотека кодирования : x264 core 146 r2538 121396c
    Настройки программы : cabac=1/ref=4/deblock=1: -1: -1/analyse=0x3: 0x133/me=umh/subme=10/psy=1/psy_rd=1.00: 0.15/mixed_ref=1/me_range=24/chroma_me=1/trellis=2/8x8dct=1/cqm=0/deadzone=21, 11/fast_pskip=1/chroma_qp_offset=-3/threads=36/lookahead_threads=3/sliced_threads=0/slices=4/nr=0/decimate=1/interlaced=0/bluray_compat=1/constrained_intra=0/bframes=3/b_pyramid=1/b_adapt=2/b_bias=0/direct=3/weightb=1/open_gop=1/weightp=1/keyint=24/keyint_min=1/scenecut=40/intra_refresh=0/rc_lookahead=24/rc=2pass/mbtree=1/bitrate=32000/ratetol=1.0/qcomp=0.60/qpmin=0/qpmax=69/qpstep=4/cplxblur=20.0/qblur=0.5/vbv_maxrate=35000/vbv_bufsize=30000/nal_hrd=vbr/filler=0/ip_ratio=1.40/aq=1: 1.00
    Язык : French
    Default : Да
    Forced : Нет
    Цветовой диапазон : Limited
    Основные цвета : BT.709
    Характеристики трансфера : BT.709
    Коэффициенты матрицы : BT.709
    Аудио #1
    Идентификатор : 2
    Формат : DTS
    Формат/Информация : Digital Theater Systems
    Профиль формата : MA/Core
    Идентификатор кодека : A_DTS
    Продолжительность : 1 ч. 36 м.
    Вид битрейта : Переменный/Постоянный
    Битрейт : 4904 Кбит/сек/1509 Кбит/сек
    Каналы : 8 каналов/6 каналов
    Расположение каналов : Front: L C R, Side: L R, Back: L R, LFE/Front: L C R, Side: L R, LFE
    Частота : 48, 0 КГц
    Частота кадров : 93, 750 кадра/сек (512 SPF)
    Битовая глубина : 24 бит
    Метод сжатия : Без потерь/Lossy
    Размер потока : 3, 29 Гбайт (13%)
    Заголовок : Юрий Сербин
    Язык : Russian
    Default : Да
    Forced : Нет
    Аудио #2
    Идентификатор : 3
    Формат : AC-3
    Формат/Информация : Audio Coding 3
    Идентификатор кодека : A_AC3
    Продолжительность : 1 ч. 36 м.
    Вид битрейта : Постоянный
    Битрейт : 640 Кбит/сек
    Каналы : 6 каналов
    Расположение каналов : Front: L C R, Side: L R, LFE
    Частота : 48, 0 КГц
    Частота кадров : 31, 250 кадров/сек (1536 SPF)
    Битовая глубина : 16 бит
    Метод сжатия : С потерями
    Размер потока : 440 Мбайт (2%)
    Заголовок : VO (Ю.Онищенко)
    Язык : Russian
    ServiceKind/String : Complete Main
    Default : Нет
    Forced : Нет
    Аудио #3
    Идентификатор : 4
    Формат : AC-3
    Формат/Информация : Audio Coding 3
    Идентификатор кодека : A_AC3
    Продолжительность : 1 ч. 36 м.
    Вид битрейта : Постоянный
    Битрейт : 640 Кбит/сек
    Каналы : 6 каналов
    Расположение каналов : Front: L C R, Side: L R, LFE
    Частота : 48, 0 КГц
    Частота кадров : 31, 250 кадров/сек (1536 SPF)
    Битовая глубина : 16 бит
    Метод сжатия : С потерями
    Размер потока : 440 Мбайт (2%)
    Язык : French
    ServiceKind/String : Complete Main
    Default : Нет
    Forced : Нет
    Текст #1
    Идентификатор : 5
    Формат : UTF-8
    Идентификатор кодека : S_TEXT/UTF8
    Идентификатор кодека/Информация : UTF-8 Plain Text
    Продолжительность : 1 ч. 27 м.
    Битрейт : 8 бит/сек
    ElementCount : 105
    Размер потока : 5, 53 Кбайт (0%)
    Заголовок : Ю.Онищенко
    Язык : Russian
    Default : Нет
    Forced : Нет
    Текст #2
    Идентификатор : 6
    Формат : UTF-8
    Идентификатор кодека : S_TEXT/UTF8
    Идентификатор кодека/Информация : UTF-8 Plain Text
    Продолжительность : 1 ч. 29 м.
    Битрейт : 23 бит/сек
    ElementCount : 407
    Размер потока : 15, 6 Кбайт (0%)
    Заголовок : (SDH, DeTorquemada)
    Язык : Russian
    Default : Нет
    Forced : Нет
    Текст #3
    Идентификатор : 7
    Формат : UTF-8
    Идентификатор кодека : S_TEXT/UTF8
    Идентификатор кодека/Информация : UTF-8 Plain Text
    Продолжительность : 1 ч. 35 м.
    Битрейт : 14 бит/сек
    ElementCount : 418
    Размер потока : 10, 3 Кбайт (0%)
    Заголовок : SDH
    Язык : French
    Default : Нет
    Forced : Нет

    Скриншоты для ознакомления



    Все одноименные релизы в Клубе
    Время раздачи: с 18: 00 до 23: 00 (до появления первых 3-5 скачавших)


    Времена года/Les Saisons (2015) BDRemux [H.264/1080p]
    Рейтинг →
     (голосов: 1, оценка 4/5, голосовать можно 1 раз )

    Другие торренты по теме:

  • BBC. Британские времена года / The Great British Year (2013) HDTVRip [H.264 / 720p] (1-4 серия из 4)
  • Живые Пейзажи. Времена года / Living Landscapes. Four Seasons (2010) BDRip [H.264 / 1080p]
  • Живые Пейзажи. Времена года / Living Landscapes. Four Seasons (2010) BDRip [H.264 / 1080p]
  • Времена года Британии / The Great British Year (2013) BDRip [H.264 / 720p] скачать через торрент бесплатно
  • BBC: Времена года Британии / The Great British Year (2013) BDRemux [H.264 / 1080p] скачать через торрент бесплатно
  • Девочки Гилмор: Времена года / Девочки Гилмор: Год из жизни / Gilmore Girls: A Year in the Life (2016) WEBRip (сезон 1, серии 1-3 из 4) NewStudio (обновляемая)
  • Season Match / Времена года (2010) [Ru] (1.0) Unofficial
  • Season Match 2 / Времена года 2 (2008) [Ru] (1.0) Unofficial


    • Комментарии (0):

      Информация

      Информация

        Посетители, находящиеся в группе Гости, не могут оставлять комментарии в данной новости.

        ↓ Меню




        ↓ Опрос

        Вы добавили сайт в закладки?
        Да
        Нет


        Top 10 за месяц (Передачи)