.
Авторизация | Регистрация
Хочешь лучшие торренты? Добавь свой email!
Добавить

Торрент скачать бесплатно

» » Захар Прилепин. Уроки русского. Наша сила, наглость и хамство (30.03.2018) HDTV [H.264 / 1080i-LQ] торрент скачать бесплатно


    Захар Прилепин. Уроки русского. Наша сила, наглость и хамство (30.03.2018) HDTV [H.264 / 1080i-LQ] торрент скачать бесплатно

    Опубликовал: Админ | Дата: 1-04-2018, 05:00 | .torrent скачали: 4

    Захар Прилепин. Уроки русского. Наша сила, наглость и хамство (30.03.2018) HDTV [H.264 / 1080i-LQ]Телекомпания: НТВ HD, ООО Гринвич Продакшн
    Жанр: Телепередача, Политика, Авторская программа
    Ведущий: Захар Прилепин
    Участники: Иван Охлобыстин

    Описание

    Еженедельный проект Захара Прилепина находится на стыке жанров сетевого видеоблога и аналитической телепередачи. В нем известный писатель анализирует наиболее актуальные и общественно значимые темы недели. Фигура Захара Прилепина известна не только поклонникам литературы. Его публицистические выступления никогда не оставляют аудиторию равнодушной, подтверждая известный тезис, что поэт в России больше, чем поэт. В своем проекте на НТВ он не только комментирует важные события и громкие темы, обсуждаемые в прессе и в Интернете, но и сам задает новые темы для дискуссии в обществе.
    Почему русская государственность не имеет полноценных аналогов в мире? Как может выглядеть идея национального кодекса для россиян? Что должна из себя представлять государственная элита, какие личные установки никогда не должны становиться общественной идеологией или фетишем, какие распространенные убеждения нужно считать маргинальными? И почему стране нужна военная аристократия?
    Также в выпуске — эксклюзивное интервью актера и сценариста Ивана Охлобыстина о том, зачем России поведенческий кодекс, как нужно формировать основные ценности и что такое национальная идея.
    Продолжительность: 00: 24: 05
    Качество видео: HDTV
    Субтитры: отсутствуют
    Видео: AVC/H.264, 1920x1080 (16: 9), ~5985 Kbps
    Аудио: AAC, 2 ch, 446 Kbps

    General
    Unique ID : 212607050040021037657525678287837788752 (0x9FF2A0DF370CCF187B9E7D00D678FA50)
    Complete name : D: FilmУроки русского. Наша сила, наглость и хамство.mkv
    Format : Matroska
    Format version : Version 4/Version 2
    File size : 1.08 GiB
    Duration : 24 min 5 s
    Overall bit rate : 6 435 kb/s
    Encoded date : UTC 2018-03-30 21: 43: 40
    Writing application : mkvmerge v21.0.0 (\'Tardigrades Will Inherit The Earth\') 64-bit
    Writing library : libebml v1.3.5 + libmatroska v1.4.8
    Cover : Yes
    Attachments : cover.png
    Video
    ID : 1
    Format : AVC
    Format/Info : Advanced Video Codec
    Format profile : High@L4
    Format settings : CABAC/4 Ref Frames
    Format settings, CABAC : Yes
    Format settings, ReFrames : 4 frames
    Codec ID : V_MPEG4/ISO/AVC
    Duration : 24 min 5 s
    Bit rate : 5 985 kb/s
    Width : 1 920 pixels
    Height : 1 080 pixels
    Display aspect ratio : 16: 9
    Frame rate mode : Constant
    Frame rate : 25.000 FPS
    Standard : Component
    Color space : YUV
    Chroma subsampling : 4: 2: 0
    Bit depth : 8 bits
    Scan type : Interlaced
    Scan type, store method : Separated fields
    Scan order : Top Field First
    Bits/(Pixel*Frame) : 0.115
    Stream size : 1.01 GiB (93%)
    Language : Russian
    Default : No
    Forced : No
    Color range : Limited
    Color primaries : BT.709
    Transfer characteristics : BT.709
    Matrix coefficients : BT.709
    Audio
    ID : 2
    Format : AAC
    Format/Info : Advanced Audio Codec
    Format profile : LC
    Codec ID : A_AAC-2
    Duration : 24 min 5 s
    Bit rate : 446 kb/s
    Channel(s) : 2 channels
    Channel positions : Front: L R
    Sampling rate : 44.1 kHz
    Frame rate : 43.066 FPS (1024 SPF)
    Compression mode : Lossy
    Stream size : 76.8 MiB (7%)
    Language : Russian
    Default : Yes
    Forced : No

    Скриншоты для ознакомления






    Все одноименные релизы в Клубе
    Время раздачи: 01: 00-03: 00, 08: 00-23: 00 (до появления первых 3-5 скачавших)


    Захар Прилепин. Уроки русского. Наша сила, наглость и хамство (30.03.2018) HDTV [H.264/1080i-LQ]
    Рейтинг →
     (голосов: 1, оценка 3/5, голосовать можно 1 раз )

    Другие торренты по теме:

  • Захар Прилепин | Черная обезьяна (2014) [MP3]
  • Захар Прилепин | ОБИТЕЛЬ (2014) [MP3]
  • Рич & Захар Прилепин - На Океан (2016) [MP3|192 кб / с|Web-DL] <Hip-Hop>
  • Захар Прилепин | Не чужая смута. Один день — один год (2016) [MP3]
  • Захар Прилепин | Семь жизней (2016) [MP3]
  • Захар Прилепин | Всё, что должно разрешиться… Хроника идущей войны (2016) [FB2]
  • Захар Прилепин | «Лимонка» в войну [сборник] (2016) [FB2]
  • Захар Прилепин | Санькя (2009) [MP3]


    • Комментарии (0):

      Информация

      Информация

        Посетители, находящиеся в группе Гости, не могут оставлять комментарии в данной новости.

        ↓ Меню




        ↓ Опрос

        Вы добавили сайт в закладки?
        Да
        Нет


        Top 10 за месяц (Передачи)