.
Авторизация | Регистрация
Хочешь лучшие торренты? Добавь свой email!
Добавить

Торрент скачать бесплатно

» » Магия болот / Magie der Moore (2015) BDRip [H.264 / 1080p] торрент скачать бесплатно


    Магия болот / Magie der Moore (2015) BDRip [H.264 / 1080p] торрент скачать бесплатно

    Опубликовал: Админ | Дата: 1-04-2018, 05:00 | .torrent скачали: 1

    Магия болот / Magie der Moore (2015) BDRip [H.264 / 1080p]Производство: Германия, Nautilusfilm, Polyband, Bayerischer Rundfunk (BR)
    Жанр: Документальный, природа, релаксация, флора, фауна
    Режиссер: Жан Хафт
    Участники: Аксель Мильберг

    Описание

    Заснеженные и сокрытые туманом болота, прозрачные озера и ревущие водопады, глубокие пещеры и живописные поселки, альпийские пейзажи и дикие животные - все это в новом фильме Жана Хафта, под расслабляющую музыку Сабольч Кови.

    Релиз от: films.club
    Продолжительность: 01: 35: 21
    Качество видео: BDRip
    Перевод: Одноголосый закадровый, профессиональный
    Субтитры: русские, немецкие, немецкие (SDH)
    Видео: AVC/H.264, 1920x1080, ~17.1 Mbps
    Аудио#1: DTS, 6 ch, 1509 kbps | Русский (СВ Студия)
    Аудио#2: DTS, 6 ch, 1509 kbps | German

    Общее
    Уникальный идентификатор : 186278131984762175939916659259803205909 (0x8C23DCFD20455046BC8FA2BF5DD08115)
    Полное имя : F: КИНОMagie.der.Moore.2015.1080p.BluRay.Rus.Ger.FilmsClub.mkv
    Формат : Matroska
    Версия формата : Version 4/Version 2
    Размер файла : 13, 4 Гбайт
    Продолжительность : 1 ч. 35 м.
    Общий поток : 20, 1 Мбит/сек
    Название фильма : Магия болот/Magie der Moore (2015) - Release for FilmsClub
    Дата кодирования : UTC 2018-03-23 20: 36: 46
    Программа кодирования : mkvmerge v8.2.0 (\'World of Adventure\') 64bit
    Библиотека кодирования : libebml v1.3.1 + libmatroska v1.4.2
    Видео
    Идентификатор : 1
    Формат : AVC
    Формат/Информация : Advanced Video Codec
    Профиль формата : High@L4.1
    Настройки формата : CABAC/4 Ref Frames
    Параметр CABAC формата : Да
    Параметр RefFrames формата : 4 кадра
    Идентификатор кодека : V_MPEG4/ISO/AVC
    Продолжительность : 1 ч. 35 м.
    Битрейт : 17, 1 Мбит/сек
    Ширина : 1920 пикселей
    Высота : 1080 пикселей
    Соотношение сторон : 16: 9
    Режим частоты кадров : Постоянный
    Частота кадров : 24, 000 кадра/сек
    Цветовое пространство : YUV
    Субдискретизация насыщенности : 4: 2: 0
    Битовая глубина : 8 бит
    Тип развёртки : Прогрессивная
    Бит/(Пиксели*Кадры) : 0.343
    Размер потока : 11, 4 Гбайт (85%)
    Заголовок : Магия болот/Magie der Moore (2015) - TayTO - FilmsClub
    Библиотека кодирования : x264 core 155 r2867+74 66b5600 t_mod_Custom_2 8-bit@all X86_64
    Настройки программы : cabac=1/ref=4/deblock=1: -3: -3/analyse=0x3: 0x133/me=umh/subme=11/psy=1/fade_compensate=0.00/psy_rd=1.00: 0.00/mixed_ref=1/me_range=32/chroma_me=1/trellis=2/8x8dct=1/cqm=0/deadzone=21, 11/fast_pskip=0/chroma_qp_offset=-2/threads=6/lookahead_threads=1/sliced_threads=0/nr=0/decimate=0/interlaced=0/bluray_compat=0/constrained_intra=0/fgo=0/bframes=9/b_pyramid=2/b_adapt=2/b_bias=0/direct=3/weightb=1/open_gop=0/weightp=2/keyint=240/keyint_min=24/scenecut=40/intra_refresh=0/rc_lookahead=60/rc=crf/mbtree=0/crf=17.5000/qcomp=0.63/qpmin=0: 0: 0/qpmax=69: 69: 69/qpstep=4/vbv_maxrate=62500/vbv_bufsize=78125/crf_max=0.0/nal_hrd=none/filler=0/ip_ratio=1.30/pb_ratio=1.20/aq=3: 0.80/aq-sensitivity=10.00/aq-factor=1.00: 1.00: 1.00/aq2=0/aq3=0/zones=512, 1800, crf=16/2415, 2685, crf=15.5/2894, 3150, crf=15.5/3376, 4150, crf=14.5/4279, 5035, crf=15.5/5288, 5491, crf=15.5/5492, 5744, crf=16/8933, 8976, crf=15/9183, 9270, crf=15/9457, 9740, crf=15/9817, 10064, crf=15/10132, 10551, crf=15.5/10760, 10798, crf=15/10857, 10941, crf=14.5/12474, 13157, crf=15.5/20590, 20849, crf=16/20959, 21056, crf=16.5/21057, 21126, crf=15.5/36977, 37091, crf=15.5/37618, 38672, crf=15.5/38766, 39349, crf=15.5/47374, 47558, crf=16.5/47740, 47885, crf=16/48224, 48394, crf=15.5/48696, 49017, crf=15.5/49018, 49508, crf=14.5/49648, 49837, crf=15.5/50291, 50468, crf=15.5/52340, 53254, crf=15.5/53732, 53942, crf=16/53943, 54265, crf=16/54266, 55108, crf=15.5/57432, 57725, crf=15/59532, 59715, crf=14.5/59716, 59911, crf=16/61866, 61983, crf=16/62316, 63018, crf=16.5/63032, 65182, crf=15.5/65568, 65682, crf=15.5/69617, 69820, crf=15.5/70305, 70435, crf=15.5/71246, 71530, crf=15.5/71532, 71743, crf=14.5/72388, 72771, crf=15.5/72900, 73178, crf=15.5/73392, 73856, crf=15.5/74070, 74343, crf=15.5/76690, 77088, crf=16/78825, 79126, crf=15.5/79543, 79665, crf=16/81640, 81705, crf=15.5/82487, 82584, crf=16.5/84099, 84135, crf=15/91670, 91965, crf=15.5/94054, 94178, crf=15.5/94627, 95244, crf=15.5/118300, 119079, crf=16/123121, 123252, crf=15.5/123513, 124138, crf=14.5/127005, 127540, crf=15.5/128950, 129827, crf=15.5/129828, 130181, crf=16/130286, 130407, crf=16.5/130408, 130477, crf=15.5/133534, 134738, crf=15
    Язык : German
    Default : Да
    Forced : Да
    Цветовой диапазон : Limited
    Основные цвета : BT.709
    Характеристики трансфера : BT.709
    Коэффициенты матрицы : BT.709
    Аудио #1
    Идентификатор : 2
    Формат : DTS
    Формат/Информация : Digital Theater Systems
    Идентификатор кодека : A_DTS
    Продолжительность : 1 ч. 35 м.
    Вид битрейта : Постоянный
    Битрейт : 1509 Кбит/сек
    Каналы : 6 каналов
    Расположение каналов : Front: L C R, Side: L R, LFE
    Частота : 48, 0 КГц
    Частота кадров : 93, 750 кадра/сек (512 SPF)
    Битовая глубина : 24 бит
    Метод сжатия : С потерями
    Размер потока : 1, 01 Гбайт (8%)
    Заголовок : DTS 5.1 @ 1509 kbps - VO, SV Studija
    Язык : Russian
    Default : Да
    Forced : Нет
    Аудио #2
    Идентификатор : 3
    Формат : DTS
    Формат/Информация : Digital Theater Systems
    Идентификатор кодека : A_DTS
    Продолжительность : 1 ч. 35 м.
    Вид битрейта : Постоянный
    Битрейт : 1509 Кбит/сек
    Каналы : 6 каналов
    Расположение каналов : Front: L C R, Side: L R, LFE
    Частота : 48, 0 КГц
    Частота кадров : 93, 750 кадра/сек (512 SPF)
    Битовая глубина : 16 бит
    Метод сжатия : С потерями
    Размер потока : 1, 01 Гбайт (8%)
    Заголовок : DTS 5.1 @ 1509 kbps - Original
    Язык : German
    Default : Нет
    Forced : Нет
    Текст #1
    Идентификатор : 4
    Формат : UTF-8
    Идентификатор кодека : S_TEXT/UTF8
    Идентификатор кодека/Информация : UTF-8 Plain Text
    Продолжительность : 1 ч. 32 м.
    Битрейт : 83 бит/сек
    ElementCount : 785
    Размер потока : 56, 3 Кбайт (0%)
    Заголовок : SV Studija
    Язык : Russian
    Default : Нет
    Forced : Нет
    Текст #2
    Идентификатор : 5
    Формат : UTF-8
    Идентификатор кодека : S_TEXT/UTF8
    Идентификатор кодека/Информация : UTF-8 Plain Text
    Продолжительность : 1 ч. 34 м.
    Битрейт : 49 бит/сек
    ElementCount : 784
    Размер потока : 34, 1 Кбайт (0%)
    Язык : German
    Default : Нет
    Forced : Нет
    Текст #3
    Идентификатор : 6
    Формат : UTF-8
    Идентификатор кодека : S_TEXT/UTF8
    Идентификатор кодека/Информация : UTF-8 Plain Text
    Продолжительность : 1 ч. 35 м.
    Битрейт : 50 бит/сек
    ElementCount : 843
    Размер потока : 35, 2 Кбайт (0%)
    Заголовок : SDH
    Язык : German
    Default : Нет
    Forced : Нет
    Меню
    00: 00: 00.000 : en: Chapter 01
    00: 12: 17.250 : en: Chapter 02
    00: 22: 45.208 : en: Chapter 03
    00: 35: 40.541 : en: Chapter 04
    00: 46: 45.000 : en: Chapter 05
    00: 59: 10.250 : en: Chapter 06
    01: 10: 39.291 : en: Chapter 07
    01: 22: 37.916 : en: Chapter 08
    01: 35: 20.000 : en: Chapter 09


    Магия болот/Magie der Moore (2015) BDRip [H.264/1080p]
    Рейтинг →
     (голосов: 1, оценка 4/5, голосовать можно 1 раз )

    Другие торренты по теме:

  • Магия болот / Magie der Moore (2015) WEBRip [H.264 / 720p-LQ]
  • Магия болот / Magie der Moore (2015) BDRip [H.264 / 1080p]
  • Магия болот / Magie der Moore (2015) BDRemux [H.264 / 1080p]


    • Комментарии (0):

      Информация

      Информация

        Посетители, находящиеся в группе Гости, не могут оставлять комментарии в данной новости.

        ↓ Меню




        ↓ Опрос

        Вы добавили сайт в закладки?
        Да
        Нет


        Top 10 за месяц (Передачи)