.
Авторизация | Регистрация
Хочешь лучшие торренты? Добавь свой email!
Добавить

Торрент скачать бесплатно

  • support: webmaster@btracker.org
» » Памяти Олега Анофриева (2010) DVB [H.264 / 1080i-LQ] торрент скачать бесплатно


    Памяти Олега Анофриева (2010) DVB [H.264 / 1080i-LQ] торрент скачать бесплатно

    Опубликовал: Админ | Дата: 1-04-2018, 05:00 | .torrent скачали: 0

    Памяти Олега Анофриева (2010) DVB [H.264 / 1080i-LQ]Телекомпания: Россия/Первый канал
    Жанр: Документальный, Биография, Искусство
    Участники: Олег Анофриев, Наталья Отливщикова - жена, Мария - дочь, Наталья-внучка, Дмитрий Харатьян - народный артист России, Василий Ливанов - народный артист РСФСР, Михаил Боярский - народный артист России, Наталья Крачковская - заслуженная артистка России, Лев Дуров - народный артист СССР, Юрий Чудецкий - бывший друг, Светлана Дружинина - народная артистка России, Юрий Энтин - поэт, драматург

    Описание

    Олег Анофриев. Это он и Львенок, и Черепаха, и Трубадур, и Атаманша. Это он спел про усталые игрушки и про миг между прошлым и будущим. Он – настоящий человек-оркестр. Своим успехом Олег Анофриев обязан одному-единственному человеку – любимой жене. Наталья Отливщикова стала для Анофриева лучшим и единственным другом. Она – мой ангел хранитель, – говорил артист. По его словам, если бы рядом с ним не было Натальи, вряд ли он стал бы тем Олегом Анофриевым, которого сегодня все знают и любят. В свое время именно Наталья предложила мужу спеть в фильме Девушка с гитарой, когда режиссер никак не мог найти подходящего исполнителя, и с тех пор Анофриева чуть ли не каждом фильме просили исполнить ту или иную песню. А позже Наталья поддержала мужа, когда он решил бросить актерскую профессию и начать все заново. Олег Андреевич не скрывал, что он несговорчивый человек, настоящий волк-одиночка. Но только в том, что касается творчества. В быту он и дня не мог прожить без своей Наташи. И она всегда была рядом. В каком бы настроении Олег Анофриев ни возвращался домой, его всегда ждали горячий ужин, чистая квартира, улыбающаяся жена, дочь Маша и внучки…28 марта 2018 года Олега Анофриева не стало.

    Продолжительность: 00: 50: 34
    Качество видео: DVB 1080i
    Субтитры: Русский, teletext (888)
    Видео: AVC/H.264, 1920 х 1080, ~8422 kb/s
    Аудио #1: MP2, 48 kHz, 2 ch, 224 kbps
    Аудио #2: АС-3, 48 kHz, 6 ch, 384 kbps

    Общее
    Идентификатор : 16 (0x10)
    Полное имя : Памяти Олега Анофриева_HD.ts
    Формат : MPEG-TS
    Размер файла : 3, 36 Гбайт
    Продолжительность : 50 м. 35 с.
    Режим общего битрейта : Переменный
    Общий поток : 9506 Кбит/сек
    Видео
    Идентификатор : 1902 (0x76E)
    Идентификатор меню : 92 (0x5C)
    Формат : AVC
    Формат/Информация : Advanced Video Codec
    Профиль формата : High@L4
    Настройки формата : CABAC/3 Ref Frames
    Параметр CABAC формата : Да
    Параметр RefFrames формата : 3 кадра
    Параметр GOP формата : M=4, N=32
    Идентификатор кодека : 27
    Продолжительность : 50 м. 35 с.
    Битрейт : 8422 Кбит/сек
    Ширина : 1920 пикселей
    Высота : 1080 пикселей
    Соотношение сторон : 16: 9
    Частота кадров : 25, 000 кадров/сек
    Стандарт вещания : PAL
    Цветовое пространство : YUV
    Субдискретизация насыщенности : 4: 2: 0
    Битовая глубина : 8 бит
    Тип развёртки : Чересстрочная
    Метод сохранения типа развёртки : Раздельные поля
    Порядок развёртки : Верхнее поле первое
    Бит/(Пиксели*Кадры) : 0.162
    Размер потока : 2, 98 Гбайт (89%)
    Цветовой диапазон : Limited
    Основные цвета : BT.709
    Характеристики трансфера : BT.709
    Коэффициенты матрицы : BT.709
    Аудио #1
    Идентификатор : 2902 (0xB56)
    Идентификатор меню : 92 (0x5C)
    Формат : MPEG Audio
    Версия формата : Version 1
    Профиль формата : Layer 2
    Идентификатор кодека : 4
    Продолжительность : 50 м. 35 с.
    Вид битрейта : Постоянный
    Битрейт : 224 Кбит/сек
    Каналы : 2 канала
    Частота : 48, 0 КГц
    Метод сжатия : С потерями
    Задержка видео : 60 мс.
    Размер потока : 81, 1 Мбайт (2%)
    Язык : std
    Язык, дополнительно : Clean effects
    Аудио #2
    Идентификатор : 3902 (0xF3E)
    Идентификатор меню : 92 (0x5C)
    Формат : AC-3
    Формат/Информация : Audio Coding 3
    Параметр Endianness формата : Big
    Идентификатор кодека : 6
    Продолжительность : 50 м. 35 с.
    Вид битрейта : Постоянный
    Битрейт : 384 Кбит/сек
    Каналы : 6 каналов
    Расположение каналов : Front: L C R, Side: L R, LFE
    Частота : 48, 0 КГц
    Частота кадров : 31, 250 кадров/сек (1536 SPF)
    Битовая глубина : 16 бит
    Метод сжатия : С потерями
    Задержка видео : 29 мс.
    Размер потока : 139 Мбайт (4%)
    Язык : std
    Язык, дополнительно : Clean effects
    ServiceKind/String : Complete Main
    Прочее #1
    Идентификатор : 33 (0x21)-100
    Идентификатор меню : 92 (0x5C)
    Формат : Teletext
    Прочее #2
    Идентификатор : 33 (0x21)-888
    Идентификатор меню : 92 (0x5C)
    Формат : Teletext
    Язык, дополнительно : Additional information page

    Скриншоты для ознакомления



    Все одноименные релизы в Клубе
    Время раздачи: Сб-Вс с 09: 00 до 23: 30 (до появления первых 3-5 скачавших)


    Памяти Олега Анофриева (2010) DVB [H.264/1080i-LQ]
    Рейтинг →
     (голосов: 1, оценка 5/5, голосовать можно 1 раз )

    Другие торренты по теме:

  • «Есть только миг». Памяти Олега Анофриева. Юбилейный вечер к 80-летию артиста (2010) DVB [H.264 / 1080i-LQ]
  • Оркестр Олега Лундстрема - Памяти Дюка Эллингтона (1978) [FLAC 2.0 24 / 192|traks(Vinil-Rip)]<Jazz> скачать через торрент бесплатно
  • Оркестр Олега Лундстрема - Памяти Дюка Эллингтона (1978) [WavPack|192 / 32|tracks|Vinyl-Rip] <Jazz>


    • Комментарии (0):

      Информация

      Информация

        Посетители, находящиеся в группе Гости, не могут оставлять комментарии в данной новости.

        ↓ Меню




        ↓ Опрос

        Вы добавили сайт в закладки?
        Да
        Нет


        Top 10 за месяц (Передачи)