.
Авторизация | Регистрация
Хочешь лучшие торренты? Добавь свой email!
Добавить

Торрент скачать бесплатно

» » Беседа с Евгением Федоровым (28.03.2018) WEBRip [H.264 / 720p-LQ] торрент скачать бесплатно


    Беседа с Евгением Федоровым (28.03.2018) WEBRip [H.264 / 720p-LQ] торрент скачать бесплатно

    Опубликовал: Админ | Дата: 1-04-2018, 05:00 | .torrent скачали: 0

    Беседа с Евгением Федоровым (28.03.2018) WEBRip [H.264 / 720p-LQ]Производство: Телевидение Национально-Освободительного Движения
    Жанр: Политика
    Участники: Мария Максимова, Евгений Федоров

    Описание

    Руководитель Молодежного направления Информационного штаба НОД с депутатом Государственной Думы России, координатором Национально-Освободительного Движения Евгением Федоровым. Темы беседы: СМИ-иноагенты и закон о саморегулировании в СМИ; как санкции повлияли на безопасность объектов в России; зачем от России требуют признать вину в деле Скрипаля и во всех других нападках; инициатива Крымского НОД; историческая технология НОД и есть ли альтернатива реформам НОД; карибский кризис.
    Продолжительность: 00: 49: 42
    Качество видео: WEBRip
    Субтитры: отсутствуют
    Видео: AVC/H.264, 1280x720 (16: 9), ~497 Kbps
    Аудио: AAC, 2 ch, 126 Kbps

    General
    Unique ID : 141574016731325634609851113158703717956 (0x6A8229EFE94286FD5442B2CAFA561E44)
    Complete name : D: FilmБеседа с Евгением Федоровым 28.03.18.mkv
    Format : Matroska
    Format version : Version 4/Version 2
    File size : 223 MiB
    Duration : 49 min 42 s
    Overall bit rate : 627 kb/s
    Encoded date : UTC 2018-03-29 20: 07: 41
    Writing application : mkvmerge v21.0.0 (\'Tardigrades Will Inherit The Earth\') 64-bit
    Writing library : libebml v1.3.5 + libmatroska v1.4.8
    Cover : Yes
    Attachments : cover.png
    Video
    ID : 1
    Format : AVC
    Format/Info : Advanced Video Codec
    Format profile : Main@L3.1
    Format settings : CABAC/3 Ref Frames
    Format settings, CABAC : Yes
    Format settings, ReFrames : 3 frames
    Codec ID : V_MPEG4/ISO/AVC
    Duration : 49 min 42 s
    Bit rate : 497 kb/s
    Width : 1 280 pixels
    Height : 720 pixels
    Display aspect ratio : 16: 9
    Frame rate mode : Constant
    Frame rate : 29.970 (30000/1001) FPS
    Color space : YUV
    Chroma subsampling : 4: 2: 0
    Bit depth : 8 bits
    Scan type : Progressive
    Bits/(Pixel*Frame) : 0.018
    Stream size : 177 MiB (79%)
    Language : Russian
    Default : Yes
    Forced : No
    Color range : Limited
    Color primaries : BT.709
    Transfer characteristics : BT.709
    Matrix coefficients : BT.709
    Audio
    ID : 2
    Format : AAC
    Format/Info : Advanced Audio Codec
    Format profile : LC
    Codec ID : A_AAC-2
    Duration : 49 min 42 s
    Bit rate : 126 kb/s
    Channel(s) : 2 channels
    Channel positions : Front: L R
    Sampling rate : 44.1 kHz
    Frame rate : 43.066 FPS (1024 SPF)
    Compression mode : Lossy
    Stream size : 44.6 MiB (20%)
    Language : Russian
    Default : Yes
    Forced : No

    Скриншоты для ознакомления



    Все одноименные релизы в Клубе
    Время раздачи: 08: 00-24: 00 (до появления первых 3-5 скачавших)


    Беседа с Евгением Федоровым (28.03.2018) WEBRip [H.264/720p-LQ]
    Рейтинг →
     (голосов: 1, оценка 5/5, голосовать можно 1 раз )

    Другие торренты по теме:

  • Беседа с Евгением Федоровым (29.07.2017) WEBRip [H.264 / 720p-LQ]
  • Беседа с Евгением Федоровым (06.09.2017) WEBRip [H.264 / 1080p-LQ]
  • Беседа с Евгением Федоровым (05.09.2017) WEBRip [H.264 / 720p-LQ]
  • Беседа с Евгением Федоровым. Банковский кризис в России (13.09.2017) WEBRip [H.264 / 720p-LQ]
  • Беседа с Евгением Федоровым (18.09.2017) WEBRip [H.264 / 720p-LQ]
  • Беседа с Евгением Федоровым (20.09.2017) WEBRip [H.264 / 720p-LQ]
  • Беседа с Евгением Федоровым (22.09.2017) WEBRip [H.264 / 720p-LQ]
  • Беседа с Евгением Федоровым. Политика ЦБ (26.09.2017) WEBRip [H.264 / 1080p-LQ]


    • Комментарии (0):

      Информация

      Информация

        Посетители, находящиеся в группе Гости, не могут оставлять комментарии в данной новости.

        ↓ Меню




        ↓ Опрос

        Вы добавили сайт в закладки?
        Да
        Нет


        Top 10 за месяц (Передачи)