.
Авторизация | Регистрация
Хочешь лучшие торренты? Добавь свой email!
Добавить

Торрент скачать бесплатно

  • support: webmaster@btracker.org
» » «Витязь». Без права на ошибку (2018) HDTV [H.264 / 1080p-LQ] торрент скачать бесплатно


    «Витязь». Без права на ошибку (2018) HDTV [H.264 / 1080p-LQ] торрент скачать бесплатно

    Опубликовал: Админ | Дата: 1-04-2018, 05:00 | .torrent скачали: 2

    «Витязь». Без права на ошибку (2018) HDTV [H.264 / 1080p-LQ]Телекомпания: Россия, Красный квадрат
    Жанр: Документальный, спецназ, история
    Режиссер: Руслан Трещёв

    Описание

    Тишина. Она - бесценна в наше беспокойное время. Но ничего не дается просто так. Всегда должен быть кто-то, кто пожертвует своими силами, временем и, быть может, даже жизнью. Ради этой самой тишины.
    Спецназ - ядро Росгвардии, силовой структуры, призванной сделать нашу жизнь безопасной. Где бы мы ни были - на митинге или на праздничных гуляниях, на важном гособъекте или на отдыхе. Там, где есть проблемы, угрожающие нашей жизни и страны в целом, появляется отряд специального назначения Витязь.
    В фильме принимают участие действующие сотрудники и ветераны Центра специального назначения Витязь, а также командование Центра и первый заместитель директора Росгвардии генерал-полковник Сергей Меликов.
    Сквозное действие фильма - преодоление двенадцатикилометровой огненно-штурмовой полосы военнослужащими, претендующими на право носить краповый берет. Съемочная группа прошла вместе с претендентами все двенадцать километров. Удалось снять военнослужащих, которые преодолевали жалость к самим себе, отчаивались, побеждали, плыли и ползли. А потом получали заветный берет.
    Авторами проведены съемки в Чечне и Дагестане - записаны интервью (истории), а также боевые учения спецназа. Проведены съемки в Китае на совместных учениях Росгвардии с китайскими партнерами.
    Релиз от: alf62
    Продолжительность: 00: 44: 59
    Качество видео: HDTV
    Видео: AVC/H.264, 1920х1080, ~3981 Kbps
    Аудио: AAC, 2 ch, 192 Kbps

    Общее
    Идентификатор : 1 (0x1)
    Полное имя : E: ЗаписьВитязь. Без права на ошибкуНовая папкаВитязь.Без.права.на.ошибку.2018.HDTVRip.1080p.alf62.ts
    Формат : MPEG-TS
    Размер файла : 1, 38 Гбайт
    Продолжительность : 44 м.
    Режим общего битрейта : Переменный
    Общий поток : 4392 Кбит/сек
    Видео
    Идентификатор : 101 (0x65)
    Идентификатор меню : 1 (0x1)
    Формат : AVC
    Формат/Информация : Advanced Video Codec
    Профиль формата : High@L4.0
    Параметр CABAC формата : Да
    Параметр ReFrames формата : 4 кадра
    Идентификатор кодека : 27
    Продолжительность : 44 м.
    Вид битрейта : Переменный
    Битрейт : 3981 Кбит/сек
    Максимальный битрейт : 4500 Кбит/сек
    Ширина : 1920 пикселей
    Высота : 1080 пикселей
    Соотношение сторон : 16: 9
    Частота кадров : 25, 000 кадров/сек
    Цветовое пространство : YUV
    Субдискретизация насыщенности : 4: 2: 0
    Битовая глубина : 8 бит
    Тип развёртки : Прогрессивная
    Бит/(Пиксели*Кадры) : 0.077
    Размер потока : 1, 25 Гбайт (91%)
    Аудио
    Идентификатор : 110 (0x6E)
    Идентификатор меню : 1 (0x1)
    Формат : AAC
    Формат/Информация : Advanced Audio Codec
    Версия формата : Version 4
    Профиль формата : LC
    Режим смешивания : ADTS
    Идентификатор кодека : 15
    Продолжительность : 44 м.
    Вид битрейта : Переменный
    Битрейт : 192 Кбит/сек
    Каналы : 2 канала
    Расположение каналов : Front: L R
    Частота : 48, 0 КГц
    Метод сжатия : С потерями
    Размер потока : 61, 8 Мбайт (4%)

    Скриншоты для ознакомления




    Все одноименные релизы в Клубе
    Время раздачи: до появления первых 3-5 скачавших


    «Витязь». Без права на ошибку (2018) HDTV [H.264/1080p-LQ]
    Рейтинг →
     (голосов: 1, оценка 4/5, голосовать можно 1 раз )

    Другие торренты по теме:

  • «Витязь». Без права на ошибку (2018) HDTVRip


    • Комментарии (0):

      Информация

      Информация

        Посетители, находящиеся в группе Гости, не могут оставлять комментарии в данной новости.

        ↓ Меню




        ↓ Опрос

        Вы добавили сайт в закладки?
        Да
        Нет


        Top 10 за месяц (Передачи)