.
Авторизация | Регистрация
Хочешь лучшие торренты? Добавь свой email!
Добавить

Торрент скачать бесплатно

» » Александр Збруев. Три истории любви (2018) DVB [H.264 / 1080i-LQ] торрент скачать бесплатно


    Александр Збруев. Три истории любви (2018) DVB [H.264 / 1080i-LQ] торрент скачать бесплатно

    Опубликовал: Админ | Дата: 1-04-2018, 05:00 | .torrent скачали: 2

    Александр Збруев. Три истории любви (2018) DVB [H.264 / 1080i-LQ]Телекомпания: Россия/Первый канал
    Жанр: Документальный, Биография, Искусство
    Участники: Александр Збруев, Евгений Федоров - брат Александра Збруева, Петр Федоров - внучатый племянник Александра Збруева, Елена Шанина - актриса, Мария Миронова - актриса, Марина Александрова - актриса, Светлана Крючкова - актриса, Ирина Купченко - актриса, Ирина Мирошниченко - актриса, Михаил Сегал - режиссер

    Описание

    Александр Збруев - любимый многими поколениями актер с редким обаянием и знаменитой збруевской улыбкой. Роли в кино и театре, востребованность, популярность. Казалось, судьба ничем актера не обделила! Он сделал прекрасную карьеру, и рядом с ним всегда были признанные красавицы: ослепительная Валентина Малявина, Людмила Савельева, которой после Войны и мира рукоплескал весь мир, звезда Ленкома Елена Шанина, блиставшая в легендарной постановке Юнона и Авось. Но сегодня, накануне своего 80-летия, актер признается, что так и не познал настоящего личного счастья. Почему так вышло? Что помешало актеру построить крепкие отношения? Верит ли он сегодня в любовь и чего желает своим дочерям Наталье и Татьяне? На все эти вопросы Александр Збруев ответит в нашем фильме. Его откровенное интервью, рассказ о наболевшем — станет нашим эксклюзивом. Мы сняли Збруева в родном театре, прогулялись с ним по Арбату, побывали на голубятне, в которой он с детства разводил голубей.

    Продолжительность: 00: 52: 09
    Качество видео: DVB 1080i
    Субтитры: Русский, teletext (888)
    Видео: AVC/H.264, 1920 х 1080, ~5498 kb/s
    Аудио #1: MP2, 48 kHz, 2 ch, 224 kbps
    Аудио #2: АС-3, 48 kHz, 6 ch, 384 kbps

    Общее
    Идентификатор : 16 (0x10)
    Полное имя : Александр Збруев_Три истории любви_HD.ts
    Формат : MPEG-TS
    Размер файла : 2, 34 Гбайт
    Продолжительность : 52 м. 11 с.
    Режим общего битрейта : Переменный
    Общий поток : 6430 Кбит/сек
    Видео
    Идентификатор : 1902 (0x76E)
    Идентификатор меню : 92 (0x5C)
    Формат : AVC
    Формат/Информация : Advanced Video Codec
    Профиль формата : High@L4
    Настройки формата : CABAC/3 Ref Frames
    Параметр CABAC формата : Да
    Параметр RefFrames формата : 3 кадра
    Идентификатор кодека : 27
    Продолжительность : 52 м. 11 с.
    Битрейт : 5498 Кбит/сек
    Ширина : 1920 пикселей
    Высота : 1080 пикселей
    Соотношение сторон : 16: 9
    Частота кадров : 25, 000 кадров/сек
    Стандарт вещания : PAL
    Цветовое пространство : YUV
    Субдискретизация насыщенности : 4: 2: 0
    Битовая глубина : 8 бит
    Тип развёртки : Чересстрочная
    Метод сохранения типа развёртки : Раздельные поля
    Порядок развёртки : Верхнее поле первое
    Бит/(Пиксели*Кадры) : 0.106
    Размер потока : 2, 00 Гбайт (85%)
    Цветовой диапазон : Limited
    Основные цвета : BT.709
    Характеристики трансфера : BT.709
    Коэффициенты матрицы : BT.709
    Аудио #1
    Идентификатор : 2902 (0xB56)
    Идентификатор меню : 92 (0x5C)
    Формат : MPEG Audio
    Версия формата : Version 1
    Профиль формата : Layer 2
    Идентификатор кодека : 4
    Продолжительность : 52 м. 11 с.
    Вид битрейта : Постоянный
    Битрейт : 224 Кбит/сек
    Каналы : 2 канала
    Частота : 48, 0 КГц
    Метод сжатия : С потерями
    Задержка видео : 76 мс.
    Размер потока : 83, 6 Мбайт (3%)
    Язык : std
    Язык, дополнительно : Clean effects
    Аудио #2
    Идентификатор : 3902 (0xF3E)
    Идентификатор меню : 92 (0x5C)
    Формат : AC-3
    Формат/Информация : Audio Coding 3
    Параметр Endianness формата : Big
    Идентификатор кодека : 6
    Продолжительность : 52 м. 11 с.
    Вид битрейта : Постоянный
    Битрейт : 384 Кбит/сек
    Каналы : 6 каналов
    Расположение каналов : Front: L C R, Side: L R, LFE
    Частота : 48, 0 КГц
    Частота кадров : 31, 250 кадров/сек (1536 SPF)
    Битовая глубина : 16 бит
    Метод сжатия : С потерями
    Задержка видео : 29 мс.
    Размер потока : 143 Мбайт (6%)
    Язык : std
    Язык, дополнительно : Clean effects
    ServiceKind/String : Complete Main
    Прочее #1
    Идентификатор : 33 (0x21)-100
    Идентификатор меню : 92 (0x5C)
    Формат : Teletext
    Прочее #2
    Идентификатор : 33 (0x21)-888
    Идентификатор меню : 92 (0x5C)
    Формат : Teletext
    Язык, дополнительно : Additional information page


    Александр Збруев. Три истории любви (2018) DVB [H.264/1080i-LQ]
    Рейтинг →
     (голосов: 1, оценка 5/5, голосовать можно 1 раз )

    Другие торренты по теме:

  • Александр Ковалевский | Тайна черных дайверов (2018) [FB2]
  • Александр Долинин | Горизонт событий (2018) [FB2]
  • Александр Пушкин, Александр Барков | Поэзия русского эроса (2014) [MP3] скачать через торрент бесплатно
  • Александр Михайловский, Александр Харников | Однажды в октябре (2015) [FB2]
  • Александр Север, Александр Колпакиди | Спецназ ГРУ. Самая полная энциклопедия (2012) [FB2] скачать через торрент бесплатно
  • Александр Михайловский, Александр Харников | В царствование императора Николая Павловича [2 тома] (2015) [FB2] скачать через торрент бесплатно
  • Александр Михайловский, Александр Харников | Мир царя Михаила (2015) [FB2] скачать через торрент бесплатно
  • Александр Драгункин, Александр Образцов | В начале было слово. Русское (2005) [PDF]


    • Комментарии (0):

      Информация

      Информация

        Посетители, находящиеся в группе Гости, не могут оставлять комментарии в данной новости.

        ↓ Меню




        ↓ Опрос

        Вы добавили сайт в закладки?
        Да
        Нет


        Top 10 за месяц (Передачи)