.
Авторизация | Регистрация
Хочешь лучшие торренты? Добавь свой email!
Добавить

Торрент скачать бесплатно

» » Холостяк (Украина) (2018.03.31) SATRip (сезон 8, выпуск 4 + Пост шоу) торрент скачать бесплатно


    Холостяк (Украина) (2018.03.31) SATRip (сезон 8, выпуск 4 + Пост шоу) торрент скачать бесплатно

    Опубликовал: Админ | Дата: 1-04-2018, 05:00 | .torrent скачали: 1

    Холостяк (Украина) (2018.03.31) SATRip (сезон 8, выпуск 4 + Пост шоу)Телекомпания: Украина/ПрАТ ММЦ-СТБ
    Жанр: Реалити шоу
    Холостяк: Рожден Ануси

    Описание

    Холостяк - это украинская версия популярного американского шоу The Bachelor, успешно дебютировавшего в 2002 году. В январе текущего года состоялась премьера 14 сезон любимого сериалаа проекта, что говорит о его невероятной популярности. Непреходящий интерес вызван и тем, что жизнь участников после шоу действительно кардинально меняется к лучшему. Например, после эфира 13-го сезон любимого сериалаа (декабрь 2009 года) холостяк Джейсон Месник и финалистка - очаровательная девушка Молли уже в марте следующего, 2010 года, сыграли пышную свадьбу, которую в трансляции одного из ведущих каналов с восторгом смотрела вся Америка.
    Долгожданное реалити-шоу Холостяк 8 сезон любимого сериала стартовало! Новым героем проекта стал 28-летний певец Рожден Ануси.
    Продолжительность: ~03: 05: 00
    Качество видео: SATRip
    Язык озвучки: Русский (и иногда закадровые комментарии на украинском)
    Субтитры: Отсутствуют
    Видео: Xvid, 720x400(16: 9), 25.000 fps, ~1650 Kbps
    Аудио: MP3, 2 ch, 128 Kbps, CBR

    General
    Complete name : /media/vitali/MOVIES/Xolostyak.s8.2018.SATRip/Post.shou.s8.2018.SATRip/Post.shou.s8.e03.SATRip.avi
    Format : AVI
    Format/Info : Audio Video Interleave
    File size : 715 MiB
    Duration : 55 min 56 s
    Overall bit rate : 1 788 kb/s
    Writing application : VirtualDubModRus 1.5.10.2 (build 2542/release)
    Writing library : VirtualDubMod build 2542/release
    Video
    ID : 0
    Format : MPEG-4 Visual
    Format profile : Advanced Simple@L5
    Format settings, BVOP : 1
    Format settings, QPel : No
    Format settings, GMC : No warppoints
    Format settings, Matrix : Default (MPEG)
    Codec ID : XVID
    Codec ID/Hint : XviD
    Duration : 55 min 56 s
    Bit rate : 1 650 kb/s
    Width : 720 pixels
    Height : 400 pixels
    Display aspect ratio : 16: 9
    Frame rate : 25.000 FPS
    Color space : YUV
    Chroma subsampling : 4: 2: 0
    Bit depth : 8 bits
    Scan type : Progressive
    Compression mode : Lossy
    Bits/(Pixel*Frame) : 0.229
    Stream size : 660 MiB (92%)
    Writing library : XviD 1.2.1 (UTC 2008-12-04)
    Audio
    ID : 1
    Format : MPEG Audio
    Format version : Version 1
    Format profile : Layer 3
    Codec ID : 55
    Codec ID/Hint : MP3
    Duration : 55 min 56 s
    Bit rate mode : Constant
    Bit rate : 128 kb/s
    Channel(s) : 2 channels
    Sampling rate : 48.0 kHz
    Compression mode : Lossy
    Stream size : 51.2 MiB (7%)
    Alignment : Aligned on interleaves
    Interleave, duration : 40 ms (1.00 video frame)
    Interleave, preload duration : 504 ms
    Writing library : LAME3.99r
    Encoding settings : -m s -V 4 -q 2 -lowpass 17 -b 128
    General
    Complete name : /media/vitali/MOVIES/Xolostyak.s8.2018.SATRip/Xolostyak.s8.e04.SATRip.avi
    Format : AVI
    Format/Info : Audio Video Interleave
    File size : 1.62 GiB
    Duration : 2 h 9 min
    Overall bit rate : 1 787 kb/s
    Writing application : VirtualDubModRus 1.5.10.2 (build 2542/release)
    Writing library : VirtualDubMod build 2542/release
    Video
    ID : 0
    Format : MPEG-4 Visual
    Format profile : Advanced Simple@L5
    Format settings, BVOP : 1
    Format settings, QPel : No
    Format settings, GMC : No warppoints
    Format settings, Matrix : Default (MPEG)
    Codec ID : XVID
    Codec ID/Hint : XviD
    Duration : 2 h 9 min
    Bit rate : 1 650 kb/s
    Width : 720 pixels
    Height : 400 pixels
    Display aspect ratio : 16: 9
    Frame rate : 25.000 FPS
    Color space : YUV
    Chroma subsampling : 4: 2: 0
    Bit depth : 8 bits
    Scan type : Progressive
    Compression mode : Lossy
    Bits/(Pixel*Frame) : 0.229
    Stream size : 1.49 GiB (92%)
    Writing library : XviD 1.2.1 (UTC 2008-12-04)
    Audio
    ID : 1
    Format : MPEG Audio
    Format version : Version 1
    Format profile : Layer 3
    Codec ID : 55
    Codec ID/Hint : MP3
    Duration : 2 h 9 min
    Bit rate mode : Constant
    Bit rate : 128 kb/s
    Channel(s) : 2 channels
    Sampling rate : 48.0 kHz
    Compression mode : Lossy
    Stream size : 119 MiB (7%)
    Alignment : Aligned on interleaves
    Interleave, duration : 40 ms (1.00 video frame)
    Interleave, preload duration : 504 ms
    Writing library : LAME3.99r
    Encoding settings : -m s -V 4 -q 2 -lowpass 17 -b 128

    Скриншоты для ознакомления



    Все одноименные релизы в Клубе
    Время раздачи: По возможности (до появления первых 3-5 скачавших)


    Холостяк (Украина) (2018.03.31) SATRip (сезон 8, выпуск 4 + Пост шоу)
    Рейтинг →
     (голосов: 1, оценка 3/5, голосовать можно 1 раз )

    Другие торренты по теме:

  • Холостяк (Украина) (2017.03.17) SATRip (сезон 7, выпуск 2 + пост шоу)
  • Холостяк (Украина) (2017.03.24) SATRip (сезон 7, выпуск 3 + пост шоу)
  • Холостяк (Украина) (2017.03.31) SATRip (7 сезон, 4 выпуск + Пост шоу)
  • Холостяк (Украина) (2017.04.07) SATRip (сезон 7, выпуск 5 + Пост шоу)
  • Холостяк (Украина) (2017.04.14) SATRip (7 сезон, 6 выпуск + Пост шоу)
  • Холостяк (Украина) (2017.04.21) SATRip (сезон 7, выпуск 7 + Пост шоу)
  • Холостяк (Украина) (2017.03.28) SATRip [H.264] (7 сезон, 8 выпуск + Пост шоу)
  • Холостяк (Украина) (2017.05.05) SATRip (7 сезон, 9 выпуск + Пост шоу)


    • Комментарии (0):

      Информация

      Информация

        Посетители, находящиеся в группе Гости, не могут оставлять комментарии в данной новости.

        ↓ Меню




        ↓ Опрос

        Вы добавили сайт в закладки?
        Да
        Нет


        Top 10 за месяц (Передачи)