.
Авторизация | Регистрация
Хочешь лучшие торренты? Добавь свой email!
Добавить

Торрент скачать бесплатно

» » «Витязь». Без права на ошибку (2018) HDTVRip торрент скачать бесплатно


    «Витязь». Без права на ошибку (2018) HDTVRip торрент скачать бесплатно

    Опубликовал: Админ | Дата: 1-04-2018, 05:00 | .torrent скачали: 1

    «Витязь». Без права на ошибку (2018) HDTVRipТелекомпания: Россия, Красный квадрат
    Жанр: Документальный, спецназ, история
    Режиссер: Руслан Трещёв

    Описание

    Тишина. Она - бесценна в наше беспокойное время. Но ничего не дается просто так. Всегда должен быть кто-то, кто пожертвует своими силами, временем и, быть может, даже жизнью. Ради этой самой тишины.
    Спецназ - ядро Росгвардии, силовой структуры, призванной сделать нашу жизнь безопасной. Где бы мы ни были - на митинге или на праздничных гуляниях, на важном гособъекте или на отдыхе. Там, где есть проблемы, угрожающие нашей жизни и страны в целом, появляется отряд специального назначения Витязь.
    В фильме принимают участие действующие сотрудники и ветераны Центра специального назначения Витязь, а также командование Центра и первый заместитель директора Росгвардии генерал-полковник Сергей Меликов.
    Сквозное действие фильма - преодоление двенадцатикилометровой огненно-штурмовой полосы военнослужащими, претендующими на право носить краповый берет. Съемочная группа прошла вместе с претендентами все двенадцать километров. Удалось снять военнослужащих, которые преодолевали жалость к самим себе, отчаивались, побеждали, плыли и ползли. А потом получали заветный берет.
    Авторами проведены съемки в Чечне и Дагестане - записаны интервью (истории), а также боевые учения спецназа. Проведены съемки в Китае на совместных учениях Росгвардии с китайскими партнерами.
    Релиз от: alf62
    Продолжительность: 00: 44: 59
    Качество видео: HDTVRip
    Видео: Xvid, 720x400, ~1900 Kbps
    Аудио: AC3, 2 ch, 192 Kbps

    Общее
    Полное имя : E: ЗаписьВитязь. Без права на ошибкуВитязь.Без.права.на.ошибку.2018.XviD.HDTVRip.alf62.avi
    Формат : AVI
    Формат/Информация : Audio Video Interleave
    Размер файла : 676 Мбайт
    Продолжительность : 44 м.
    Общий поток : 2102 Кбит/сек
    Программа кодирования : VirtualDubMod 1.5.10.3 |www.virtualdub-fr.org|| (build 2550/release)
    Библиотека кодирования : VirtualDubMod build 2550/release
    Видео
    Идентификатор : 0
    Формат : MPEG-4 Visual
    Профиль формата : Advanced Simple@L5
    Параметр BVOP формата : 2
    Параметр QPel формата : Нет
    Параметр GMC формата : Без точки перехода
    Параметр матрицы формата : Default (MPEG)
    Идентификатор кодека : XVID
    Идентификатор кодека/Подсказка : XviD
    Продолжительность : 44 м.
    Битрейт : 1900 Кбит/сек
    Ширина : 720 пикселей
    Высота : 400 пикселей
    Соотношение сторон : 16: 9
    Частота кадров : 25, 000 кадров/сек
    Цветовое пространство : YUV
    Субдискретизация насыщенности : 4: 2: 0
    Битовая глубина : 8 бит
    Тип развёртки : Прогрессивная
    Метод сжатия : С потерями
    Бит/(Пиксели*Кадры) : 0.264
    Размер потока : 611 Мбайт (90%)
    Библиотека кодирования : XviD 73
    Аудио
    Идентификатор : 1
    Формат : AC-3
    Формат/Информация : Audio Coding 3
    Расширение режима : CM (complete main)
    Параметр Endianness формата : Big
    Идентификатор кодека : 2000
    Продолжительность : 44 м.
    Вид битрейта : Постоянный
    Битрейт : 192 Кбит/сек
    Каналы : 2 канала
    Расположение каналов : Front: L R
    Частота : 48, 0 КГц
    Битовая глубина : 16 бит
    Метод сжатия : С потерями
    Размер потока : 61, 8 Мбайт (9%)
    Выравнивание : Разделение по промежуткам
    Продолжительность промежутка : 40 мс. (1, 00 видеокадр)
    Время предзагрузки промежутка : 500 мс.

    Скриншоты для ознакомления





    Все одноименные релизы в Клубе
    Время раздачи: до появления первых 3-5 скачавших


    «Витязь». Без права на ошибку (2018) HDTVRip
    Рейтинг →
     (голосов: 1, оценка 3/5, голосовать можно 1 раз )

    Другие торренты по теме:

  • «Витязь». Без права на ошибку (2018) HDTV [H.264 / 1080p-LQ]


    • Комментарии (0):

      Информация

      Информация

        Посетители, находящиеся в группе Гости, не могут оставлять комментарии в данной новости.

        ↓ Меню




        ↓ Опрос

        Вы добавили сайт в закладки?
        Да
        Нет


        Top 10 за месяц (Передачи)