.
Авторизация | Регистрация
Хочешь лучшие торренты? Добавь свой email!
Добавить

Торрент скачать бесплатно

» » Голос. Дети (30.03.2018) WEBRip [H.264] (сезон 5, выпуск 8) торрент скачать бесплатно


    Голос. Дети (30.03.2018) WEBRip [H.264] (сезон 5, выпуск 8) торрент скачать бесплатно

    Опубликовал: Админ | Дата: 1-04-2018, 05:00 | .torrent скачали: 2

    Голос. Дети (30.03.2018) WEBRip [H.264] (сезон 5, выпуск 8)Телекомпания: Первый канал
    Жанр: ТВ-шоу
    Ведущие: Дмитрий Нагиев и Агата Муцениеце
    Жюри: Валерий Меладзе, Пелагея и Баста

    Описание

    Первый канал представляет премьеру пятого сезон любимого сериалаа музыкального проекта Голос. Дети. Детский конкурсный проект строится по тем же принципам, что и взрослый. Из тысяч заявок на участие, присланных в адрес Первого канала, музыкальная редакция отобрала несколько сотен самых достойных. В ходе предварительных кастингов к участию в слепых прослушиваниях было допущено 100 человек. Теперь очередь фирменных слепых прослушиваний, поединков и финала. Наставники команд: Баста, Валерий Меладзе и Пелагея. В ходе слепых прослушиваний наставники наберут свои команды, в каждой из которых будет по 15 юных исполнителей в возрасте от 7 до 14 лет. В поединках каждая команда будет разбита на тройки, и из каждой тройки в следующий этап выйдет только один певец. В батлах пятерка вокалистов в каждой команде поспорит за 2 места в финале. А в финале зрители путем голосования в прямом эфире назовут победителя всего проекта.
    Продолжительность: 01: 31: 21
    Качество видео: WEBRip
    Видео: AVC/H.264, 640х360, ~950 Kbps
    Аудио: AAC, 2 ch, 128 Kbps

    Общее
    Уникальный идентификатор : 7219072121435051188190571039347410412 (0x56E57BC4C112170FA28CF26431785EC)
    Полное имя : H: ВИДЕОGolos.Deti.s5Golos.Deti.s5e08(30.03.2018).mkv
    Формат : Matroska
    Версия формата : Version 4/Version 2
    Размер файла : 706 Мбайт
    Продолжительность : 1 ч. 31 м.
    Общий поток : 1080 Кбит/сек
    Дата кодирования : UTC 2018-03-31 18: 18: 59
    Программа кодирования : mkvmerge v19.0.0 (\'Brave Captain\') 64-bit
    Библиотека кодирования : libebml v1.3.5 + libmatroska v1.4.8
    Видео
    Идентификатор : 1
    Формат : AVC
    Формат/Информация : Advanced Video Codec
    Профиль формата : High@L3
    Настройки формата : CABAC/5 Ref Frames
    Параметр CABAC формата : Да
    Параметр RefFrames формата : 5 кадров
    Идентификатор кодека : V_MPEG4/ISO/AVC
    Продолжительность : 1 ч. 31 м.
    Битрейт : 950 Кбит/сек
    Ширина : 640 пикселей
    Высота : 360 пикселей
    Соотношение сторон : 16: 9
    Режим частоты кадров : Постоянный
    Частота кадров : 25, 000 кадров/сек
    Цветовое пространство : YUV
    Субдискретизация насыщенности : 4: 2: 0
    Битовая глубина : 8 бит
    Тип развёртки : Прогрессивная
    Бит/(Пиксели*Кадры) : 0.165
    Размер потока : 621 Мбайт (88%)
    Библиотека кодирования : x264 core 118
    Default : Да
    Forced : Нет
    Аудио
    Идентификатор : 2
    Формат : AAC
    Формат/Информация : Advanced Audio Codec
    Профиль формата : LC
    Идентификатор кодека : A_AAC-2
    Продолжительность : 1 ч. 31 м.
    Битрейт : 128 Кбит/сек
    Каналы : 2 канала
    Расположение каналов : Front: L R
    Частота : 48, 0 КГц
    Частота кадров : 46, 875 кадров/сек (1024 SPF)
    Метод сжатия : С потерями
    Размер потока : 83, 6 Мбайт (12%)
    Default : Да
    Forced : Нет

    Скриншоты для ознакомления



    Все одноименные релизы в Клубе
    Время раздачи: c 20: 00 до 24: 00 (до появления первых 3-5 скачавших)


    Голос. Дети (30.03.2018) WEBRip [H.264] (сезон 5, выпуск 8)
    Рейтинг →
     (голосов: 1, оценка 3/5, голосовать можно 1 раз )

    Другие торренты по теме:

  • Голос. Дети. Сезон №2. Выпуск №1 (2015.02.13) HDTVRip [H.264 / 720p-LQ] скачать через торрент бесплатно
  • Голос. Дети. Сезон №2. Выпуск №1 (2015.02.13) HDTV [H.264 / 1080i] скачать через торрент бесплатно
  • Голос. Дети. Сезон №2. Выпуск №1 (2015.02.13) SATRip скачать через торрент бесплатно
  • Голос. Дети. Сезон №2. Выпуск №2 (2015.02.20) HDTV [H.264 / 1080i] скачать через торрент бесплатно
  • Голос. Дети. Сезон №2. Выпуск №2 (2015.02.20) SATRip скачать через торрент бесплатно
  • Голос. Дети. Сезон №2. Выпуск №2 (2015.02.21) HDTVRip [H.264 / 720p-LQ]
  • Голос. Дети. Сезон №2. Лучшее (2015.04.24) SATRip скачать через торрент бесплатно
  • Голос. Дети (2016.02.20) HDTV [H.264 / 1080i] (сезон 3, выпуск 1)


    • Комментарии (0):

      Информация

      Информация

        Посетители, находящиеся в группе Гости, не могут оставлять комментарии в данной новости.

        ↓ Меню




        ↓ Опрос

        Вы добавили сайт в закладки?
        Да
        Нет


        Top 10 за месяц (Передачи)