.
Авторизация | Регистрация
Хочешь лучшие торренты? Добавь свой email!
Добавить

Торрент скачать бесплатно

» » BBC: Сокрытые миры / Hidden Kingdoms (2014) BDRip [H.264 / 1080p] (Серии 1-3 из 3) торрент скачать бесплатно


    BBC: Сокрытые миры / Hidden Kingdoms (2014) BDRip [H.264 / 1080p] (Серии 1-3 из 3) торрент скачать бесплатно

    Опубликовал: Админ | Дата: 1-04-2018, 05:00 | .torrent скачали: 2

    BBC: Сокрытые миры / Hidden Kingdoms (2014) BDRip [H.264 / 1080p] (Серии 1-3 из 3)Производство: Великобритания, British Broadcasting Corporation (BBC)
    Жанр: Документальный, научно-познавательный, природа, фауна, исследование
    Режиссер: Саймон Белл

    Описание

    Сериал от мастеров жанра канала ВВС. На этот раз мы не просто станем свидетелями жизни животных, а перенесемся в мир миниатюры, где маленькие существа борются за жизнь наравне с большими и сильными обитателями фауны. Мы увидим, как они видят нас. Сможем заметить, как от движений маленьких животных шевелятся травинки. Уникальный спектр съемки позволит уловить самые незаметные движения. Мы узнаем мир их глазами, в полной мере ощутив себя гостями парка Юрского периода. Леса Борнео, пустыни Африки и Аризоны, мрачные леса Северной Америки и даже городские джунгли Токио и Рио! Они повсюду, они живут по своим законам, но настало время раскрыть большие тайны маленьких существ и еще раз восхититься уникальной и мудрой природой нашей планеты.

    Релиз от: HDclub
    Продолжительность: 3 x ~ 00: 51: 00
    Качество видео: BDRip
    Перевод: Одноголосый закадровый, профессиональный
    Субтитры: Датские
    Видео: AVC/H.264, 1920x1080, ~12.7 Mbps
    Аудио#1: AC3, 2 ch, 192 Kbps | Русский (Владимир Курдов)
    Аудио#2: DTS, 6 ch, 1509 Kbps | Английский (Стивен Фрай)

    Общее
    Уникальный идентификатор : 213525797434278936144064321313836601410 (0xA0A3929DA1F88E32873653D26DF79042)
    Полное имя : F: КИНОHidden.Kingdoms.2014.1080p.BluRay.Rus.Eng.HDCLUBUnder.Open.Skies.2014.1080p.BluRay.Rus.Eng.HDCLUB.mkv
    Формат : Matroska
    Версия формата : Version 4/Version 2
    Размер файла : 5, 29 Гбайт
    Продолжительность : 51 м. 24 с.
    Общий поток : 14, 7 Мбит/сек
    Название фильма : Create by DeTorquemada for HDCLUB
    Дата кодирования : UTC 2014-10-26 07: 27: 21
    Программа кодирования : mkvmerge v7.2.0 (\'On Every Street\') 64bit built on Sep 13 2014 15: 52: 10
    Библиотека кодирования : libebml v1.3.0 + libmatroska v1.4.1
    Видео
    Идентификатор : 1
    Формат : AVC
    Формат/Информация : Advanced Video Codec
    Профиль формата : High@L4.1
    Настройки формата : CABAC/4 Ref Frames
    Параметр CABAC формата : Да
    Параметр RefFrames формата : 4 кадра
    Идентификатор кодека : V_MPEG4/ISO/AVC
    Продолжительность : 51 м. 24 с.
    Битрейт : 12, 7 Мбит/сек
    Ширина : 1920 пикселей
    Высота : 1080 пикселей
    Соотношение сторон : 16: 9
    Режим частоты кадров : Постоянный
    Частота кадров : 23, 976 (24000/1001) кадра/сек
    Цветовое пространство : YUV
    Субдискретизация насыщенности : 4: 2: 0
    Битовая глубина : 8 бит
    Тип развёртки : Прогрессивная
    Бит/(Пиксели*Кадры) : 0.256
    Размер потока : 4, 58 Гбайт (86%)
    Заголовок : Под открытым небом/Under Open Skies (2014) - Release for HDCLUB
    Библиотека кодирования : x264 core 142 r2431 ac76440
    Настройки программы : cabac=1/ref=4/deblock=1: -3: -3/analyse=0x3: 0x113/me=umh/subme=10/psy=1/psy_rd=1.00: 0.00/mixed_ref=1/me_range=48/chroma_me=1/trellis=2/8x8dct=1/cqm=0/deadzone=21, 11/fast_pskip=1/chroma_qp_offset=-2/threads=6/lookahead_threads=1/sliced_threads=0/nr=0/decimate=1/interlaced=0/bluray_compat=0/constrained_intra=0/bframes=3/b_pyramid=2/b_adapt=2/b_bias=0/direct=1/weightb=1/open_gop=0/weightp=2/keyint=240/keyint_min=23/scenecut=40/intra_refresh=0/rc_lookahead=65/rc=crf/mbtree=0/crf=18.0/qcomp=0.60/qpmin=0/qpmax=69/qpstep=4/vbv_maxrate=50000/vbv_bufsize=62500/crf_max=0.0/nal_hrd=none/filler=0/ip_ratio=1.40/pb_ratio=1.30/aq=1: 0.80
    Язык : English
    Default : Да
    Forced : Нет
    Цветовой диапазон : Limited
    Коэффициенты матрицы : BT.709
    Аудио #1
    Идентификатор : 2
    Формат : AC-3
    Формат/Информация : Audio Coding 3
    Идентификатор кодека : A_AC3
    Продолжительность : 51 м. 24 с.
    Вид битрейта : Постоянный
    Битрейт : 192 Кбит/сек
    Каналы : 2 канала
    Расположение каналов : Front: L R
    Частота : 48, 0 КГц
    Частота кадров : 31, 250 кадров/сек (1536 SPF)
    Битовая глубина : 16 бит
    Метод сжатия : С потерями
    Размер потока : 70, 6 Мбайт (1%)
    Заголовок : 48KHz/16-bit, AC3, 2.0 (L, R) ch, 192 kbps - AVO V.Kurdov
    Язык : Russian
    ServiceKind/String : Complete Main
    Default : Да
    Forced : Нет
    Аудио #2
    Идентификатор : 3
    Формат : DTS
    Формат/Информация : Digital Theater Systems
    Идентификатор кодека : A_DTS
    Продолжительность : 51 м. 24 с.
    Вид битрейта : Постоянный
    Битрейт : 1509 Кбит/сек
    Каналы : 6 каналов
    Расположение каналов : Front: L C R, Side: L R, LFE
    Частота : 48, 0 КГц
    Частота кадров : 93, 750 кадра/сек (512 SPF)
    Битовая глубина : 16 бит
    Метод сжатия : С потерями
    Размер потока : 555 Мбайт (10%)
    Заголовок : 48KHz/16-bit, DTS, 3/2 (L, C, R, l, r) + LFE ch, 1509 kbps - Stephen Fry
    Язык : English
    Default : Нет
    Forced : Нет
    Текст
    Идентификатор : 4
    Формат : UTF-8
    Идентификатор кодека : S_TEXT/UTF8
    Идентификатор кодека/Информация : UTF-8 Plain Text
    Заголовок : Subtitles/Captions
    Язык : Dutch
    Default : Нет
    Forced : Нет
    Меню
    00: 00: 00.000 : en:
    00: 08: 37.934 : en:
    00: 22: 42.861 : en:
    00: 35: 42.932 : en:
    00: 50: 53.175 : en:
    00: 51: 24.039 : en:


    BBC: Сокрытые миры/Hidden Kingdoms (2014) BDRip [H.264/1080p] (Серии 1-3 из 3)
    Рейтинг →
     (голосов: 1, оценка 4/5, голосовать можно 1 раз )

    Другие торренты по теме:

  • BBC. Сокрытые миры / Hidden Kingdoms (2014) BDRip [H.264 / 720p] (1-3 серии из 3) скачать через торрент бесплатно


    • Комментарии (0):

      Информация

      Информация

        Посетители, находящиеся в группе Гости, не могут оставлять комментарии в данной новости.

        ↓ Меню




        ↓ Опрос

        Вы добавили сайт в закладки?
        Да
        Нет


        Top 10 за месяц (Передачи)