.
Авторизация | Регистрация
Хочешь лучшие торренты? Добавь свой email!
Добавить

Торрент скачать бесплатно

  • support: webmaster@btracker.org
» » BBC: Жизнь на земле / Life on Earth (1979) BDRip [H.264 / 720p-LQ] (Эпизоды 1-13 из 13) торрент скачать бесплатно


    BBC: Жизнь на земле / Life on Earth (1979) BDRip [H.264 / 720p-LQ] (Эпизоды 1-13 из 13) торрент скачать бесплатно

    Опубликовал: Админ | Дата: 1-04-2018, 05:00 | .torrent скачали: 5

    BBC: Жизнь на земле / Life on Earth (1979) BDRip [H.264 / 720p-LQ] (Эпизоды 1-13 из 13)Производство: Великобритания, BBC, Warner Bros, Reiner Moritz Productions
    Жанр: Документальный, научно-познавательный, природа, фауна, исследование
    Режиссер: Дэвид Аттенборо
    Участники: Дэвид Аттенборо

    Описание

    Документальный сериал Жизни на Земле, первое великое исследование Дэвида Аттенборо жизни на планете в HD качестве. Серия фильмов показанных в 1979 рассказывает о развитии жизни на Земле; от первых одноклеточных организмов, которые появились в морях около 3, 5 миллиардов лет назад, до миллионов разнообразных и сложных животных и растений, которые разделяют мир с нами сегодня.

    Релиз от: рип boba88
    Продолжительность: 13 х ~00: 54: 00
    Качество видео: BDRip
    Перевод: Одноголосый закадровый, профессиональный (Омикрон)
    Субтитры: Английские
    Видео: AVC/H.264, 960х720, ~5000 Kbps
    Аудио#1: AC3, 2 ch, 192 Kbps | Русский
    Аудио#2: AC3, 2 ch, 192 Kbps | Английский

    Общее
    Уникальный идентификатор : 229813216068350827701216362906746882941 (0xACE46A5A8D07BD725153B7DA20EC0B7D)
    Полное имя : F: КИНОLife on Earth 720pLife on Earth 720p.Ep7.mkv
    Формат : Matroska
    Версия формата : Version 4/Version 2
    Размер файла : 2, 03 Гбайт
    Продолжительность : 54 м. 34 с.
    Общий поток : 5326 Кбит/сек
    Название фильма : Life on Earth 720p by boba88
    Дата кодирования : UTC 2018-03-31T06: 30: 43Z
    Программа кодирования : HandBrake 20171225170117-de47c6c-master 2017122601
    Библиотека кодирования : Lavf57.7.2
    Видео
    Идентификатор : 1
    Формат : AVC
    Формат/Информация : Advanced Video Codec
    Профиль формата : High@L4.1
    Настройки формата : CABAC/4 Ref Frames
    Параметр CABAC формата : Да
    Параметр RefFrames формата : 4 кадра
    Идентификатор кодека : V_MPEG4/ISO/AVC
    Продолжительность : 54 м. 34 с.
    Битрейт : 5000 Кбит/сек
    Ширина : 960 пикселей
    Высота : 720 пикселей
    Соотношение сторон : 4: 3
    Режим частоты кадров : Постоянный
    Частота кадров : 25, 000 кадров/сек
    Цветовое пространство : YUV
    Субдискретизация насыщенности : 4: 2: 0
    Битовая глубина : 8 бит
    Тип развёртки : Прогрессивная
    Бит/(Пиксели*Кадры) : 0.289
    Размер потока : 1, 84 Гбайт (91%)
    Библиотека кодирования : x264 core 148 r2708 86b7198
    Настройки программы : cabac=1/ref=1/deblock=1: 0: 0/analyse=0x3: 0x113/me=hex/subme=2/psy=1/psy_rd=1.00: 0.00/mixed_ref=0/me_range=16/chroma_me=1/trellis=0/8x8dct=1/cqm=0/deadzone=21, 11/fast_pskip=1/chroma_qp_offset=0/threads=6/lookahead_threads=2/sliced_threads=0/nr=0/decimate=1/interlaced=0/bluray_compat=0/constrained_intra=0/bframes=3/b_pyramid=2/b_adapt=1/b_bias=0/direct=1/weightb=1/open_gop=0/weightp=1/keyint=250/keyint_min=25/scenecut=40/intra_refresh=0/rc_lookahead=10/rc=abr/mbtree=1/bitrate=5000/ratetol=1.0/qcomp=0.60/qpmin=0/qpmax=69/qpstep=4/vbv_maxrate=62500/vbv_bufsize=78125/nal_hrd=none/filler=0/ip_ratio=1.40/aq=1: 1.00
    Default : Да
    Forced : Нет
    Цветовой диапазон : Limited
    Основные цвета : BT.709
    Характеристики трансфера : BT.709
    Коэффициенты матрицы : BT.709
    Аудио #1
    Идентификатор : 2
    Формат : AC-3
    Формат/Информация : Audio Coding 3
    Идентификатор кодека : A_AC3
    Продолжительность : 54 м. 34 с.
    Вид битрейта : Постоянный
    Битрейт : 192 Кбит/сек
    Каналы : 2 канала
    Расположение каналов : Front: L R
    Частота : 48, 0 КГц
    Частота кадров : 31, 250 кадров/сек (1536 SPF)
    Битовая глубина : 16 бит
    Метод сжатия : С потерями
    Размер потока : 74, 9 Мбайт (4%)
    Заголовок : Stereo
    Язык : Russian
    ServiceKind/String : Complete Main
    Default : Да
    Forced : Нет
    Аудио #2
    Идентификатор : 3
    Формат : AC-3
    Формат/Информация : Audio Coding 3
    Идентификатор кодека : A_AC3
    Продолжительность : 54 м. 34 с.
    Вид битрейта : Постоянный
    Битрейт : 192 Кбит/сек
    Каналы : 2 канала
    Расположение каналов : Front: L R
    Частота : 48, 0 КГц
    Частота кадров : 31, 250 кадров/сек (1536 SPF)
    Битовая глубина : 16 бит
    Метод сжатия : С потерями
    Размер потока : 74, 9 Мбайт (4%)
    Заголовок : Stereo
    Язык : English
    ServiceKind/String : Complete Main
    Default : Нет
    Forced : Нет
    Текст
    Идентификатор : 4
    Формат : ASS
    Идентификатор кодека : S_TEXT/ASS
    Идентификатор кодека/Информация : Advanced Sub Station Alpha
    Метод сжатия : Без потерь
    Язык : English
    Default : Нет
    Forced : Нет


    BBC: Жизнь на земле/Life on Earth (1979) BDRip [H.264/720p-LQ] (Эпизоды 1-13 из 13)
    Рейтинг →
     (голосов: 1, оценка 3/5, голосовать можно 1 раз )

    Другие торренты по теме:

  • Анатолий Иванов | Жизнь на грешной земле (2013) [MP3]
  • Б. А. Келлер | Как произошла жизнь на Земле (1947) [DJVU]


    • Комментарии (0):

      Информация

      Информация

        Посетители, находящиеся в группе Гости, не могут оставлять комментарии в данной новости.

        ↓ Меню




        ↓ Опрос

        Вы добавили сайт в закладки?
        Да
        Нет


        Top 10 за месяц (Передачи)