.
Авторизация | Регистрация
Хочешь лучшие торренты? Добавь свой email!
Добавить

Торрент скачать бесплатно

» » Вечер с Владимиром Соловьевым (28.03.2018) HDTV [H.264 / 1080i-LQ] торрент скачать бесплатно


    Вечер с Владимиром Соловьевым (28.03.2018) HDTV [H.264 / 1080i-LQ] торрент скачать бесплатно

    Опубликовал: Админ | Дата: 31-03-2018, 05:00 | .torrent скачали: 1

    Вечер с Владимиром Соловьевым (28.03.2018) HDTV [H.264 / 1080i-LQ]Телекомпания: Россия 1 HD
    Жанр: Телепередача, Политика

    Описание

    В Кемерове прошли первые похороны. Общее количество погибших – 64 человека, пострадавших – 76. Два дня назад вокруг борьбы за данные шла спекуляция. Это были не случайные заблуждения убитых горем людей, а спланированные провокации. Одни пытались использовать трагедию в политических целях, другие хотели поймать хайп.
    Российский режиссер, народный артист РСФСР Никита Михалков стал гостем в передаче Владимира Соловьева.
    Продолжительность: 00: 29: 58
    Качество видео: HDTV
    Субтитры: отсутствуют
    Видео: AVC/H.264, 1920x1080 (16: 9), ~14.0 Mbps
    Аудио: AAC, 2 ch, 446 Kbps

    General
    Unique ID : 311706841040216093257681127165815558529 (0xEA808DCC95C72C96BD9D3B5DB0D21181)
    Complete name : D: FilmВечер с Владимиром Соловьевым. Никита Михалков 28.03.18.mkv
    Format : Matroska
    Format version : Version 4/Version 2
    File size : 3.03 GiB
    Duration : 29 min 58 s
    Overall bit rate : 14.5 Mb/s
    Encoded date : UTC 2018-03-30 10: 43: 51
    Writing application : mkvmerge v21.0.0 (\'Tardigrades Will Inherit The Earth\') 64-bit
    Writing library : libebml v1.3.5 + libmatroska v1.4.8
    Cover : Yes
    Attachments : cover.png
    Video
    ID : 1
    Format : AVC
    Format/Info : Advanced Video Codec
    Format profile : High@L4
    Format settings : CABAC/4 Ref Frames
    Format settings, CABAC : Yes
    Format settings, ReFrames : 4 frames
    Format settings, GOP : M=4, N=28
    Codec ID : V_MPEG4/ISO/AVC
    Duration : 29 min 58 s
    Bit rate : 14.0 Mb/s
    Width : 1 920 pixels
    Height : 1 080 pixels
    Display aspect ratio : 16: 9
    Frame rate mode : Constant
    Frame rate : 25.000 FPS
    Standard : Component
    Color space : YUV
    Chroma subsampling : 4: 2: 0
    Bit depth : 8 bits
    Scan type : Interlaced
    Scan type, store method : Separated fields
    Scan order : Top Field First
    Bits/(Pixel*Frame) : 0.271
    Stream size : 2.94 GiB (97%)
    Language : Russian
    Default : No
    Forced : No
    Color range : Limited
    Color primaries : BT.709
    Transfer characteristics : BT.709
    Matrix coefficients : BT.709
    Audio
    ID : 2
    Format : AAC
    Format/Info : Advanced Audio Codec
    Format profile : LC
    Codec ID : A_AAC-2
    Duration : 29 min 58 s
    Bit rate : 446 kb/s
    Channel(s) : 2 channels
    Channel positions : Front: L R
    Sampling rate : 44.1 kHz
    Frame rate : 43.066 FPS (1024 SPF)
    Compression mode : Lossy
    Stream size : 95.5 MiB (3%)
    Language : Russian
    Default : Yes
    Forced : No

    Скриншоты для ознакомления




    Все одноименные релизы в Клубе
    Время раздачи: 08: 00-24: 00 (до появления первых 3-5 скачавших)


    Вечер с Владимиром Соловьевым (28.03.2018) HDTV [H.264/1080i-LQ]
    Рейтинг →
     (голосов: 1, оценка 3/5, голосовать можно 1 раз )

    Другие торренты по теме:

  • Вечер с Владимиром Соловьевым (2014.09.25) SATRip
  • Вечер с Владимиром Соловьевым (2014.09.24) SATRip
  • Вечер с Владимиром Соловьевым (2014.09.23) SATRip
  • Вечер с Владимиром Соловьевым (2014.09.22) SATRip
  • Воскресный вечер с Владимиром Соловьевым (2014.09.21) SATRip
  • Воскресный вечер с Владимиром Соловьевым (2014.09.28) SATRip
  • Вечер с Владимиром Соловьевым (2014.09.29) SATRip
  • Вечер с Владимиром Соловьевым (2014.09.30) SATRip скачать через торрент бесплатно


    • Комментарии (0):

      Информация

      Информация

        Посетители, находящиеся в группе Гости, не могут оставлять комментарии в данной новости.

        ↓ Меню




        ↓ Опрос

        Вы добавили сайт в закладки?
        Да
        Нет


        Top 10 за месяц (Передачи)