.
Авторизация | Регистрация
Хочешь лучшие торренты? Добавь свой email!
Добавить

Торрент скачать бесплатно

  • support: webmaster@btracker.org
» » Тайны гипноза (30.03.2018) SATRip торрент скачать бесплатно


    Тайны гипноза (30.03.2018) SATRip торрент скачать бесплатно

    Опубликовал: Админ | Дата: 31-03-2018, 05:00 | .torrent скачали: 0

    Тайны гипноза (30.03.2018) SATRipТелекомпания: РенTV
    Жанр: Документальный, Телепередача

    Описание

    Гипноз спасает от боли, помогает похудеть и даже забыть измену. Но человек с его помощью может как спасти себя, так и уничтожить. Как работает внушение? Почему врачи утверждают, что психика является мощным источником лечебного воздействия? Может ли гипноз покалечить - или заставить человека пойти на убийство? Как не поддаться внушению? Раскроет ли гипнотизёр тайны ваших прошлых жизней? Какие эксперименты с манипуляцией сознания проводят в современных секретных лабораториях?
    Релиз от: RiperAM
    Продолжительность: 00: 46: 14
    Качество видео: SATRip
    Субтитры: отсутствуют
    Видео: Xvid, 720x400, ~1700 Kbps
    Аудио: MP3, 2 ch, 128 Kbps

    Общее
    Полное имя : Tainy.gipnoza.30.03.2018.avi
    Формат : AVI
    Формат/Информация : Audio Video Interleave
    Размер файла : 608 Мбайт
    Продолжительность : 46 м.
    Общий поток : 1838 Кбит/сек
    Программа кодирования : VirtualDubMod 1.5.10.3 |www.virtualdub-fr.org|| (build 2550/release)
    Библиотека кодирования : VirtualDubMod build 2550/release
    Видео
    Идентификатор : 0
    Формат : MPEG-4 Visual
    Профиль формата : Advanced Simple@L5
    Параметр BVOP формата : 2
    Параметр QPel формата : Нет
    Параметр GMC формата : Без точки перехода
    Параметр матрицы формата : Default (H.263)
    Идентификатор кодека : XVID
    Идентификатор кодека/Подсказка : XviD
    Продолжительность : 46 м.
    Битрейт : 1700 Кбит/сек
    Ширина : 720 пикселей
    Высота : 400 пикселей
    Соотношение сторон : 16: 9
    Частота кадров : 25, 000 кадров/сек
    Цветовое пространство : YUV
    Субдискретизация насыщенности : 4: 2: 0
    Битовая глубина : 8 бит
    Тип развёртки : Прогрессивная
    Метод сжатия : С потерями
    Бит/(Пиксели*Кадры) : 0.236
    Размер потока : 562 Мбайт (93%)
    Библиотека кодирования : XviD 1.2.1 (UTC 2008-12-04)
    Аудио
    Идентификатор : 1
    Формат : MPEG Audio
    Версия формата : Version 1
    Профиль формата : Layer 3
    Режим : Joint stereo
    Расширение режима : MS Stereo
    Идентификатор кодека : 55
    Идентификатор кодека/Подсказка : MP3
    Продолжительность : 46 м.
    Вид битрейта : Постоянный
    Битрейт : 128 Кбит/сек
    Каналы : 2 канала
    Частота : 48, 0 КГц
    Метод сжатия : С потерями
    Размер потока : 42, 3 Мбайт (7%)
    Выравнивание : Соединение по промежуткам
    Продолжительность промежутка : 40 мс. (1, 00 видеокадр)
    Время предзагрузки промежутка : 504 мс.
    Библиотека кодирования : LAME3.99r
    Настройки программы : -m j -V 4 -q 9 -lowpass 17 -b 128

    Скриншоты для ознакомления



    Все одноименные релизы в Клубе
    Время раздачи: 24/7 (до появления первых 3-5 скачавших)


    Тайны гипноза (30.03.2018) SATRip
    Рейтинг →
     (голосов: 1, оценка 3/5, голосовать можно 1 раз )

    Другие торренты по теме:

  • Нил Деграсс Тайсон | Астрофизика с космической скоростью, или Великие тайны Вселенной для тех, кому некогда (2018) [FB2]
  • Тайны кино. Бумбараш (2018) WEBRip
  • Нераскрытые тайны. Тайны Кремлевских концертов (2014) SATRip
  • Тайны истории: Тайны римских черепов / Secret History: The Mystery of the Crossrail Skulls (2016) HDTVRip [H.264 / 720p-LQ] (сезон 16, эпизод 2)
  • Тайны мира с Анной Чапман (2014.09.26) SATRip
  • Книжная серия | Тайны древних цивилизаций [121 книга] (1998-2011) [FB2, PDF, DJVU]
  • Хэйвен / Тайны Хейвена / Haven (2014) WEB-DLRip (Сезон 5, серии 1-3 из 26) (BaibaKo) (обновляемая)
  • Хэйвен / Тайны Хейвена / Haven (2014) WEB-DL [H.264 / 720p-LQ] (Сезон 5, серии 1-3 из 26) (BaibaKo) (обновляемая)


    • Комментарии (0):

      Информация

      Информация

        Посетители, находящиеся в группе Гости, не могут оставлять комментарии в данной новости.

        ↓ Меню




        ↓ Опрос

        Вы добавили сайт в закладки?
        Да
        Нет


        Top 10 за месяц (Передачи)