.
Авторизация | Регистрация
Хочешь лучшие торренты? Добавь свой email!
Добавить

Торрент скачать бесплатно

» » Судьба человека с Борисом Корчевниковым. Иван Охлобыстин (29.03.2018) HDTV [H.264 / 1080i-LQ] торрент скачать бесплатно


    Судьба человека с Борисом Корчевниковым. Иван Охлобыстин (29.03.2018) HDTV [H.264 / 1080i-LQ] торрент скачать бесплатно

    Опубликовал: Админ | Дата: 31-03-2018, 05:00 | .torrent скачали: 2

    Судьба человека с Борисом Корчевниковым. Иван Охлобыстин (29.03.2018) HDTV [H.264 / 1080i-LQ]Телекомпания: ВГТРК, Россия 1 HD, ООО ЕМГ
    Жанр: Телепередача, Интервью, Биография
    Ведущий: Борис Корчевников
    Участники: Иван Охлобыстин

    Описание

    Судьба человека - это откровенное портретное интервью о судьбе главного героя, об интересных и малоизвестных фактах его биографии, о чувствах и эмоциях, которые переживал человек на главных поворотах своей судьбы. Героями программы Судьба человека будут не только известные артисты и политики, но и простые люди с непростой судьбой.
    Ни Годзилла, ни Терминатор не помешали бы мне жениться на Оксане. Это была любовь с первого взгляда, – признался как-то Иван Охлобыстин. Вместе они уже 23 года. Оксана, в прямом смысле слова, прошла с ним и огонь, и воду, и медные трубы. Она полюбила его, когда он был бедным, никому не нужным студентом. Она была рядом, когда он становился кинозвездой. Она охотно стала матушкой Ксенией, когда Охлобыстин принял сан священнослужителя, и беременная четвертым ребенком последовала за мужем в далекий Ташкент. Со смирением она приняла и его решение оставить служение и оказалась женой деспотичного доктора Быкова из молодежного сериала, которого со всех сторон атаковали поклонницы. Как звезда 90-х Оксана Арбузова, однажды уехав на байке с молодым рокером Иваном Охлобыстином, стала мамой шестерых детей актера и его судьбой?
    Продолжительность: 00: 52: 39
    Качество видео: HDTV
    Субтитры: отсутствуют
    Видео: AVC/H.264, 1920x1080 (16: 9), ~9033 Kbps
    Аудио: AAC, 2 ch, 446 Kbps

    General
    Unique ID : 225622169668235310063820694843854482862 (0xA9BD3FD009E2064E2140E17EEF4CEDAE)
    Complete name : D: FilmСудьба человека с Борисом Корчевниковым. Иван Охлобыстин.mkv
    Format : Matroska
    Format version : Version 4/Version 2
    File size : 3.49 GiB
    Duration : 52 min 39 s
    Overall bit rate : 9 483 kb/s
    Encoded date : UTC 2018-03-30 16: 24: 03
    Writing application : mkvmerge v21.0.0 (\'Tardigrades Will Inherit The Earth\') 64-bit
    Writing library : libebml v1.3.5 + libmatroska v1.4.8
    Cover : Yes
    Attachments : cover.png
    Video
    ID : 1
    Format : AVC
    Format/Info : Advanced Video Codec
    Format profile : High@L4
    Format settings : CABAC/4 Ref Frames
    Format settings, CABAC : Yes
    Format settings, ReFrames : 4 frames
    Codec ID : V_MPEG4/ISO/AVC
    Duration : 52 min 39 s
    Bit rate : 9 033 kb/s
    Width : 1 920 pixels
    Height : 1 080 pixels
    Display aspect ratio : 16: 9
    Frame rate mode : Constant
    Frame rate : 25.000 FPS
    Standard : Component
    Color space : YUV
    Chroma subsampling : 4: 2: 0
    Bit depth : 8 bits
    Scan type : Interlaced
    Scan type, store method : Separated fields
    Scan order : Top Field First
    Bits/(Pixel*Frame) : 0.174
    Stream size : 3.32 GiB (95%)
    Language : Russian
    Default : No
    Forced : No
    Color range : Limited
    Color primaries : BT.709
    Transfer characteristics : BT.709
    Matrix coefficients : BT.709
    Audio
    ID : 2
    Format : AAC
    Format/Info : Advanced Audio Codec
    Format profile : LC
    Codec ID : A_AAC-2
    Duration : 52 min 39 s
    Bit rate : 446 kb/s
    Channel(s) : 2 channels
    Channel positions : Front: L R
    Sampling rate : 44.1 kHz
    Frame rate : 43.066 FPS (1024 SPF)
    Compression mode : Lossy
    Stream size : 168 MiB (5%)
    Language : Russian
    Default : Yes
    Forced : No

    Скриншоты для ознакомления




    Все одноименные релизы в Клубе
    Время раздачи: 08: 00-24: 00 (до появления первых 3-5 скачавших)


    Судьба человека с Борисом Корчевниковым. Иван Охлобыстин (29.03.2018) HDTV [H.264/1080i-LQ]
    Рейтинг →
     (голосов: 1, оценка 5/5, голосовать можно 1 раз )

    Другие торренты по теме:

  • Михаил Шолохов | Судьба человека (2012) [MP3]
  • Судьба человека (1959) DVD5
  • Судьба человека с Борисом Корчевниковым. Армейские дневники Никиты Михалкова (22.02.2018) HDTV [H.264 / 1080p-LQ]


    • Комментарии (0):

      Информация

      Информация

        Посетители, находящиеся в группе Гости, не могут оставлять комментарии в данной новости.

        ↓ Меню




        ↓ Опрос

        Вы добавили сайт в закладки?
        Да
        Нет


        Top 10 за месяц (Передачи)