.
Авторизация | Регистрация
Хочешь лучшие торренты? Добавь свой email!
Добавить

Торрент скачать бесплатно

» » Третий рейх: Взлёт и падение / Third Reich: The Rise & Fall (2010) HDTVRip (2 серия из 2) (Обновляемая) торрент скачать бесплатно


    Третий рейх: Взлёт и падение / Third Reich: The Rise & Fall (2010) HDTVRip (2 серия из 2) (Обновляемая) торрент скачать бесплатно

    Опубликовал: Админ | Дата: 31-03-2018, 05:00 | .torrent скачали: 3

    Третий рейх: Взлёт и падение / Third Reich: The Rise & Fall (2010) HDTVRip (2 серия из 2) (Обновляемая)Производство: США, AE Television Networks
    Жанр: Документальный, кинохроника, война, история
    Режиссер: Николь Риттенмейер, Сет Скандрик

    Описание

    В двух сериях этого документального фильма, канал History рассказывает историю гитлеровской Германии, аутентичный портрет Третьего Рейха и его людей. Он погружает зрителя в Германию 20-х, 30-х и начала 40-х годов, используя редкие кадры любительской киносъемки, нацистские пропагандистские фильмы, записи из немецких новостных сводок и другие уникальные кадры, которые войска союзников взяли в качестве трофеев. Повествование состоит из личных воспоминаний, отобранных из немецких дневников, журналов и писем.

    Релиз от: alf62
    Продолжительность: 1 x ~ 01: 22: 58
    Качество видео: HDTVRip
    Перевод: Дублированный
    Видео: Xvid, 720x544, ~2103 Kbps
    Аудио: AC3, 2 ch, 192 Kbps

    Общее
    Полное имя : E: ЗаписьТретий рейх Взлет и падениеТретий.рейх.Взлёт.и.падение.2010.XviD.HDTVRip.alf62Третий.рейх.Взлёт.и.падение.(2.серия).Падение.2010.XviD.HDTVRip.alf62.avi
    Формат : AVI
    Формат/Информация : Audio Video Interleave
    Размер файла : 1, 34 Гбайт
    Продолжительность : 1 ч. 22 м.
    Общий поток : 2304 Кбит/сек
    Программа кодирования : VirtualDubMod 1.5.10.3 |www.virtualdub-fr.org|| (build 2550/release)
    Библиотека кодирования : VirtualDubMod build 2550/release
    Видео
    Идентификатор : 0
    Формат : MPEG-4 Visual
    Профиль формата : Advanced Simple@L5
    Параметр BVOP формата : 2
    Параметр QPel формата : Нет
    Параметр GMC формата : Без точки перехода
    Параметр матрицы формата : Default (MPEG)
    Идентификатор кодека : XVID
    Идентификатор кодека/Подсказка : XviD
    Продолжительность : 1 ч. 22 м.
    Битрейт : 2103 Кбит/сек
    Ширина : 720 пикселей
    Высота : 544 пикселя
    Соотношение сторон : 4: 3
    Частота кадров : 25, 000 кадров/сек
    Цветовое пространство : YUV
    Субдискретизация насыщенности : 4: 2: 0
    Битовая глубина : 8 бит
    Тип развёртки : Прогрессивная
    Метод сжатия : С потерями
    Бит/(Пиксели*Кадры) : 0.215
    Размер потока : 1, 22 Гбайт (91%)
    Библиотека кодирования : XviD 73
    Аудио
    Идентификатор : 1
    Формат : AC-3
    Формат/Информация : Audio Coding 3
    Расширение режима : CM (complete main)
    Параметр Endianness формата : Big
    Идентификатор кодека : 2000
    Продолжительность : 1 ч. 22 м.
    Вид битрейта : Постоянный
    Битрейт : 192 Кбит/сек
    Каналы : 2 канала
    Расположение каналов : Front: L R
    Частота : 48, 0 КГц
    Битовая глубина : 16 бит
    Метод сжатия : С потерями
    Размер потока : 114 Мбайт (8%)
    Выравнивание : Разделение по промежуткам
    Продолжительность промежутка : 40 мс. (1, 00 видеокадр)
    Время предзагрузки промежутка : 500 мс.

    Скриншоты для ознакомления






    Все одноименные релизы в Клубе
    Время раздачи: до появления первых 3-5 скачавших


    Третий рейх: Взлёт и падение/Third Reich: The Rise & Fall (2010) HDTVRip (2 серия из 2) (Обновляемая)
    Рейтинг →
     (голосов: 1, оценка 3/5, голосовать можно 1 раз )

    Другие торренты по теме:

  • Олег Курылев | Третий рейх. 1933-1945. Полный атлас (2013) [PDF] скачать через торрент бесплатно
  • Третий рейх в цвете / Das Dritte Reich - In Farbe (1998) DVDRip [H.264] скачать через торрент бесплатно
  • Ватикан и Третий Рейх / The Vatican and the Third Reich (2014) DVB скачать через торрент бесплатно
  • Сергей Кормилицын | Третий Рейх. Гитлер-югенд (2004) [PDF]
  • Сергей Кормилицын | Третий Рейх. Гитлер-югенд (2004) [FB2]
  • Ватикан и Третий Рейх / The Vatican and the Third Reich (2014) HDTVRip [H.264 / 720p-LQ]
  • Егор Яковлев | Война на уничтожение. Что готовил Третий Рейх для России (2017) [FB2, EPUB]
  • Третий рейх: Взлёт и падение / Third Reich: The Rise & Fall (2010) HDTVRip [H.264 / 720p-LQ] (2 серия из 2) (Обновляемая)


    • Комментарии (0):

      Информация

      Информация

        Посетители, находящиеся в группе Гости, не могут оставлять комментарии в данной новости.

        ↓ Меню




        ↓ Опрос

        Вы добавили сайт в закладки?
        Да
        Нет


        Top 10 за месяц (Передачи)