.
Авторизация | Регистрация
Хочешь лучшие торренты? Добавь свой email!
Добавить

Торрент скачать бесплатно

  • support: webmaster@btracker.org
» » NG: Земля: Биография Планеты / Earth: Making of a Planet (2011) HDTVRip [H.264 / 720p-LQ] торрент скачать бесплатно


    NG: Земля: Биография Планеты / Earth: Making of a Planet (2011) HDTVRip [H.264 / 720p-LQ] торрент скачать бесплатно

    Опубликовал: Админ | Дата: 31-03-2018, 05:00 | .torrent скачали: 0

    NG: Земля: Биография Планеты / Earth: Making of a Planet (2011) HDTVRip [H.264 / 720p-LQ]Производство: Великобритания, Канада, Pioneer Productions International Limited, Handel Productions Earth Inc.
    Жанр: Документальный
    Режиссер: Явар Аббас

    Описание

    Земля... Насколько нам известно, это единственное обитаемое небесное тело во Вселенной. Почему? Чем наша планета так особенна? Ответы кроются в далеком прошлом Земли. Чтобы их отыскать, нам надо совершить путешествие в прошлое и увидеть первых ходивших по земле людей... Проехаться по континентам, движущихся навстречу друг другу... Повстречаться с динозаврами-убийцами, погрузиться в океаны, кишащие причудливыми формами жизни... Почувствовать лютый холод мировых ледниковых периодов и испытать всю ярость космических метеоритных ударов. Нам надо отправится в прошлое, в те времена, когда произошло рождение самой Земли, - тогда мы сможем воссоздать невероятную историю нашей планеты и узнать почему все это, все мы тут существуем...

    Релиз от: DaVinci
    Продолжительность: 01: 31: 28
    Качество видео: HDTVRip
    Перевод: Одноголосый закадровый, профессиональный (АРК ТВ)
    Субтитры: отсутствуют
    Видео: AVC/H.264, 1280х720, ~3035 Kbps
    Аудио#1: AC3, 2 ch, 128 Kbps | Русский (текст читает Александр Булачевский)
    Аудио#2: AC3, 6 ch, 384 Kbps | Английский

    Общее
    Уникальный идентификатор : 184629990828261966452701323857569308710 (0x8AE6715B21B59D668B58AE67CC3CE026)
    Полное имя : F: КИНОZemlja.Biografia.planety.2011.x264.HDTVRip(720p)_DaVinci.mkv
    Формат : Matroska
    Версия формата : Version 2
    Размер файла : 2, 27 Гбайт
    Продолжительность : 1 ч. 31 м.
    Общий поток : 3549 Кбит/сек
    Дата кодирования : UTC 2011-07-25 09: 05: 43
    Программа кодирования : mkvmerge v3.2.0 (\'Beginnings\') built on Feb 12 2010 16: 46: 17
    Библиотека кодирования : libebml v0.7.9 + libmatroska v0.8.1
    Видео
    Идентификатор : 1
    Формат : AVC
    Формат/Информация : Advanced Video Codec
    Профиль формата : High@L4.1
    Настройки формата : CABAC/4 Ref Frames
    Параметр CABAC формата : Да
    Параметр RefFrames формата : 4 кадра
    Идентификатор кодека : V_MPEG4/ISO/AVC
    Продолжительность : 1 ч. 31 м.
    Битрейт : 3035 Кбит/сек
    Ширина : 1280 пикселей
    Высота : 720 пикселей
    Соотношение сторон : 16: 9
    Режим частоты кадров : Постоянный
    Частота кадров : 29, 970 кадров/сек
    Цветовое пространство : YUV
    Субдискретизация насыщенности : 4: 2: 0
    Битовая глубина : 8 бит
    Тип развёртки : Прогрессивная
    Бит/(Пиксели*Кадры) : 0.110
    Размер потока : 1, 90 Гбайт (84%)
    Библиотека кодирования : x264 core 114 r1913 5fd3dce
    Настройки программы : cabac=1/ref=4/deblock=1: 0: 0/analyse=0x3: 0x113/me=umh/subme=7/psy=1/psy_rd=1.00: 0.00/mixed_ref=1/me_range=16/chroma_me=1/trellis=1/8x8dct=1/cqm=0/deadzone=21, 11/fast_pskip=0/chroma_qp_offset=-2/threads=18/sliced_threads=0/nr=0/decimate=1/interlaced=0/constrained_intra=0/bframes=4/b_pyramid=2/b_adapt=1/b_bias=0/direct=1/weightb=1/open_gop=0/weightp=2/keyint=300/keyint_min=30/scenecut=40/intra_refresh=0/rc_lookahead=40/rc=2pass/mbtree=1/bitrate=3035/ratetol=1.0/qcomp=0.60/qpmin=0/qpmax=69/qpstep=4/cplxblur=20.0/qblur=0.5/ip_ratio=1.40/aq=1: 1.00
    Язык : English
    Default : Нет
    Forced : Нет
    Аудио #1
    Идентификатор : 2
    Формат : AC-3
    Формат/Информация : Audio Coding 3
    Идентификатор кодека : A_AC3
    Продолжительность : 1 ч. 31 м.
    Вид битрейта : Постоянный
    Битрейт : 128 Кбит/сек
    Каналы : 2 канала
    Расположение каналов : Front: L R
    Частота : 48, 0 КГц
    Частота кадров : 31, 250 кадров/сек (1536 SPF)
    Битовая глубина : 16 бит
    Метод сжатия : С потерями
    Размер потока : 83, 7 Мбайт (4%)
    Заголовок : biografia.zemli
    Язык : Russian
    ServiceKind/String : Complete Main
    Default : Да
    Forced : Да
    Аудио #2
    Идентификатор : 3
    Формат : AC-3
    Формат/Информация : Audio Coding 3
    Идентификатор кодека : A_AC3
    Продолжительность : 1 ч. 31 м.
    Вид битрейта : Постоянный
    Битрейт : 384 Кбит/сек
    Каналы : 6 каналов
    Расположение каналов : Front: L C R, Side: L R, LFE
    Частота : 48, 0 КГц
    Частота кадров : 31, 250 кадров/сек (1536 SPF)
    Битовая глубина : 16 бит
    Метод сжатия : С потерями
    Размер потока : 251 Мбайт (11%)
    Заголовок : earth
    Язык : English
    ServiceKind/String : Complete Main
    Default : Нет
    Forced : Нет

    Скриншоты для ознакомления



    Все одноименные релизы в Клубе
    Время раздачи: с 18: 00 до 23: 00 (до появления первых 3-5 скачавших)


    NG: Земля: Биография Планеты/Earth: Making of a Planet (2011) HDTVRip [H.264/720p-LQ]
    Рейтинг →
     (голосов: 1, оценка 4/5, голосовать можно 1 раз )

    Другие торренты по теме:

  • Эта твёрдая земля / Ця тверда земля (1967) WEBRip [UKR / RU Sub]
  • Большая земля (1944) DVDRip
  • Андрей Ивасенко | Земля туманов (2014) [FB2] скачать через торрент бесплатно
  • Земля обетованная / Promised Land (2012) BDRip [1080p]
  • Земля Хо! / Land Ho! (2014) BDRip [1080p] [EN]
  • Запретная земля / The Sacred (2009) HDTV [1080i] скачать через торрент бесплатно
  • BBC. Как устроена Земля / Earth Machine / Der rastlose Planet (2011) BDRip [H.264 / 1080p] [1-2 серия из 2] скачать через торрент бесплатно
  • Армения - Земля Ноя / Armenia - The Land Of Noan / Hayastan - Noyi erkir (2008) HDTVRip [720p-LQ]


    • Комментарии (0):

      Информация

      Информация

        Посетители, находящиеся в группе Гости, не могут оставлять комментарии в данной новости.

        ↓ Меню




        ↓ Опрос

        Вы добавили сайт в закладки?
        Да
        Нет


        Top 10 за месяц (Передачи)