.
Авторизация | Регистрация
Хочешь лучшие торренты? Добавь свой email!
Добавить

Торрент скачать бесплатно

» » NG: Войны насекомых / Insect wars (2005) HDTVRip [H.264 / 1080p-LQ] торрент скачать бесплатно


    NG: Войны насекомых / Insect wars (2005) HDTVRip [H.264 / 1080p-LQ] торрент скачать бесплатно

    Опубликовал: Админ | Дата: 31-03-2018, 05:00 | .torrent скачали: 0

    NG: Войны насекомых / Insect wars (2005) HDTVRip [H.264 / 1080p-LQ]Телекомпания: США, National Geographic
    Жанр: Документальный, фауна
    Режиссер: Кэтрин Йеллоуз

    Описание

    Великие империи куются в горниле жестокости, а малые государства живут в постоянном страхе…. Задолго до того, как человек научился завоевывать, социальные насекомые - муравьи, пчелы, термиты, шершни - строили свои государства… Нападая… Порабощая… Подавляя... Мы считаем себя повелителями Земли. Но наши деяния бледнеют перед свершениями воинственных легионов у нас под ногами. Это - повесть об Империи… О грубой силе… Жестоком владычестве… Это – Империя насекомых, где бесчисленные армии безжалостных завоевателей идут, чтобы сражаться и разорять…

    Релиз от: рип boba88
    Продолжительность: 00: 46: 51
    Качество видео: HDTVRip
    Перевод: Одноголосый закадровый, профессиональный
    Субтитры: отсутствуют
    Видео: AVC/H.264, 1920x1080, ~6000 Kbps
    Аудио: MP3, 2 ch, 93 Kbps

    Общее
    Уникальный идентификатор : 165898896732700285638100049846972949740 (0x7CCEF71DA0AA80F9B9D7D601E3FFA4EC)
    Полное имя : F: КИНОВойны насекомых.HDTVRip.1080p.mkv
    Формат : Matroska
    Версия формата : Version 4/Version 2
    Размер файла : 1, 99 Гбайт
    Продолжительность : 46 м. 55 с.
    Режим общего битрейта : Переменный
    Общий поток : 6073 Кбит/сек
    Дата кодирования : UTC 2018-03-30 11: 07: 15
    Программа кодирования : mkvmerge v21.0.0 (\'Tardigrades Will Inherit The Earth\') 64-bit
    Библиотека кодирования : libebml v1.3.5 + libmatroska v1.4.8
    Видео
    Идентификатор : 1
    Формат : AVC
    Формат/Информация : Advanced Video Codec
    Профиль формата : High@L4.1
    Настройки формата : CABAC/4 Ref Frames
    Параметр CABAC формата : Да
    Параметр RefFrames формата : 4 кадра
    Идентификатор кодека : V_MPEG4/ISO/AVC
    Продолжительность : 46 м. 51 с.
    Битрейт : 6000 Кбит/сек
    Ширина : 1920 пикселей
    Высота : 1080 пикселей
    Соотношение сторон : 16: 9
    Режим частоты кадров : Постоянный
    Частота кадров : 25, 000 кадров/сек
    Цветовое пространство : YUV
    Субдискретизация насыщенности : 4: 2: 0
    Битовая глубина : 8 бит
    Тип развёртки : Прогрессивная
    Бит/(Пиксели*Кадры) : 0.116
    Размер потока : 1, 96 Гбайт (99%)
    Библиотека кодирования : x264 core 148 r2708 86b7198
    Настройки программы : cabac=1/ref=3/deblock=1: -1: -1/analyse=0x3: 0x113/me=hex/subme=7/psy=1/psy_rd=1.00: 0.15/mixed_ref=1/me_range=16/chroma_me=1/trellis=1/8x8dct=1/cqm=0/deadzone=21, 11/fast_pskip=1/chroma_qp_offset=-3/threads=6/lookahead_threads=1/sliced_threads=0/nr=0/decimate=1/interlaced=0/bluray_compat=0/constrained_intra=0/bframes=3/b_pyramid=2/b_adapt=1/b_bias=0/direct=1/weightb=1/open_gop=0/weightp=2/keyint=250/keyint_min=25/scenecut=40/intra_refresh=0/rc_lookahead=40/rc=abr/mbtree=1/bitrate=6000/ratetol=1.0/qcomp=0.60/qpmin=0/qpmax=69/qpstep=4/vbv_maxrate=62500/vbv_bufsize=78125/nal_hrd=none/filler=0/ip_ratio=1.40/aq=1: 1.00
    Default : Да
    Forced : Нет
    Цветовой диапазон : Limited
    Основные цвета : BT.709
    Характеристики трансфера : BT.709
    Коэффициенты матрицы : BT.709
    Аудио
    Идентификатор : 2
    Формат : MPEG Audio
    Версия формата : Version 1
    Профиль формата : Layer 3
    Идентификатор кодека : A_MPEG/L3
    Идентификатор кодека/Подсказка : MP3
    Продолжительность : 46 м. 55 с.
    Вид битрейта : Переменный
    Битрейт : 87, 9 Кбит/сек
    Номинальный битрейт : 93, 0 Кбит/сек
    Каналы : 1 канал
    Частота : 48, 0 КГц
    Частота кадров : 41, 667 кадра/сек (1152 SPF)
    Метод сжатия : С потерями
    Задержка видео : -5 мс.
    Размер потока : 29, 5 Мбайт (1%)
    Библиотека кодирования : LAME3.97
    Настройки программы : -m m -V 4 -q 3 -lowpass 20.5 --abr 93
    Default : Да
    Forced : Нет

    Скриншоты для ознакомления



    Все одноименные релизы в Клубе
    Время раздачи: с 18: 00 до 23: 00 (до появления первых 3-5 скачавших)


    NG: Войны насекомых/Insect wars (2005) HDTVRip [H.264/1080p-LQ]
    Рейтинг →
     (голосов: 1, оценка 5/5, голосовать можно 1 раз )

    Другие торренты по теме:

  • Гладиаторы Второй Мировой Войны (Специальные части Второй мировой войны ) / Gladiators of World War II (2001) DVDRip [13 серий из 13] скачать через торрент бесплатно
  • К. Б. Виноградов | Буржуазная историография первой мировой войны. Происхождение войны и международные отношения 1914-1917 гг. (1962) [DJVU] скачать через торрент бесплатно
  • Звездные войны: Войны клонов / Star Wars: The Clone Wars (2012) (Сезон 5, 20 серий из 20) BDRip [H.264 / 1080p-LQ] (Невафильм)
  • Звездные войны: Войны клонов / Star Wars: The Clone Wars (2014) (Сезон 6, 13 серий из 13) BDRip [H.264 / 1080p-LQ] (Невафильм)
  • Армен Гаспарян | Россия в огне Гражданской войны. Подлинная история самой страшной братоубийственной войны (2016) [FB2]
  • BBC. Секретные войны (Тайные войны) / The Secret War (1977-1978) DVDRip (7 серий из 7)
  • Ментовские войны-8 (2014) SATRip (Серии 1-12 из 16) (обновляемая)
  • Ментовские войны-8 (2014) SATRip [H.264] (Сезон 8, Серия 1-12 из 16) (Обновляемая)


    • Комментарии (0):

      Информация

      Информация

        Посетители, находящиеся в группе Гости, не могут оставлять комментарии в данной новости.

        ↓ Меню




        ↓ Опрос

        Вы добавили сайт в закладки?
        Да
        Нет


        Top 10 за месяц (Передачи)