.
Авторизация | Регистрация
Хочешь лучшие торренты? Добавь свой email!
Добавить

Торрент скачать бесплатно

» » Люди и камни эпохи неолита / Mysteries of the Stone Ages (Les enigmes de lage de la pierre, Ratsel der Steinzeit) (2017) HDTVRip [H.264 / 720p] (серии 1-2 из 2) торрент скачать бесплатно


    Люди и камни эпохи неолита / Mysteries of the Stone Ages (Les enigmes de lage de la pierre, Ratsel der Steinzeit) (2017) HDTVRip [H.264 / 720p] (серии 1-2 из 2) торрент скачать бесплатно

    Опубликовал: Админ | Дата: 31-03-2018, 05:00 | .torrent скачали: 0

    Люди и камни эпохи неолита / Mysteries of the Stone Ages (Les enigmes de lage de la pierre, Ratsel der Steinzeit) (2017) HDTVRip [H.264 / 720p] (серии 1-2 из 2)Производство: Австрия, Франция, Германия, Participating television broadcasters: ORF, SR, ARTE, RAI Bozen
    Жанр: Документальный, история, исследования
    Режиссер: Барбара Пушкас

    Описание

    Пока неясно, каким образом древним цивилизациям удалось создать эти фантастические каменные структуры. Как они подняли огромные блоки? И что мы можем узнать об этих обществах? Каковы были поворотные моменты в их истории? Была ли секретная связь между культурами, которые строили мегалитные круги? Новые исследования и последние международные исследования показывают свежие подсказки к самым большим тайнам каменного века.
    Релиз от: рип skorpionN
    Продолжительность: 2x~00: 52: 20
    Качество видео: HDTVRip
    Перевод: Одноголосый закадровый, профессиональный (СВ Дубль)
    Субтитры: отсутствуют
    Видео: AVC/H.264, 1280х720, ~4000 Kbps
    Аудио#1: AC3, 2 ch, 192 Kbps | Русский
    Аудио#2: AC3, 2 ch, 192 Kbps | Французский

    Общее
    Уникальный идентификатор : 209754027963263749046951898253954523638 (0x9DCD2805F7356761A1FF1715765E21F6)
    Полное имя : F: КИНОMysteries of the Stone Age_720p1_Et l_homme devint agriculteur.mkv
    Формат : Matroska
    Версия формата : Version 4/Version 2
    Размер файла : 1, 60 Гбайт
    Продолжительность : 52 м. 19 с.
    Режим общего битрейта : Переменный
    Общий поток : 4382 Кбит/сек
    Дата кодирования : UTC 2018-03-30 05: 37: 49
    Программа кодирования : mkvmerge v6.9.1 (\'Blue Panther\') 64bit built on Apr 18 2014 18: 23: 38
    Библиотека кодирования : libebml v1.3.0 + libmatroska v1.4.1
    Видео
    Идентификатор : 1
    Формат : AVC
    Формат/Информация : Advanced Video Codec
    Профиль формата : High@L4
    Настройки формата : CABAC/3 Ref Frames
    Параметр CABAC формата : Да
    Параметр RefFrames формата : 3 кадра
    Идентификатор кодека : V_MPEG4/ISO/AVC
    Продолжительность : 52 м. 19 с.
    Вид битрейта : Переменный
    Битрейт : 4000 Кбит/сек
    Максимальный битрейт : 8000 Кбит/сек
    Ширина : 1280 пикселей
    Высота : 720 пикселей
    Соотношение сторон : 16: 9
    Режим частоты кадров : Постоянный
    Частота кадров : 25, 000 кадров/сек
    Стандарт вещания : NTSC
    Цветовое пространство : YUV
    Субдискретизация насыщенности : 4: 2: 0
    Битовая глубина : 8 бит
    Тип развёртки : Прогрессивная
    Бит/(Пиксели*Кадры) : 0.174
    Размер потока : 1, 43 Гбайт (89%)
    Библиотека кодирования : x264 core 114
    Настройки программы : cabac=1/ref=3/deblock=1: 0: 0/analyse=0x3: 0x113/me=hex/subme=7/psy=1/psy_rd=1.00: 0.00/mixed_ref=1/me_range=16/chroma_me=1/trellis=1/8x8dct=1/cqm=2/deadzone=21, 11/fast_pskip=1/chroma_qp_offset=-4/threads=6/sliced_threads=0/slices=1/nr=0/decimate=1/interlaced=0/constrained_intra=0/bframes=3/b_pyramid=0/b_adapt=1/b_bias=0/direct=1/weightb=1/open_gop=0/weightp=2/keyint=250/keyint_min=25/scenecut=40/intra_refresh=0/rc_lookahead=40/rc=2pass/mbtree=1/bitrate=4000/ratetol=1.0/qcomp=0.60/qpmin=5/qpmax=69/qpstep=4/cplxblur=20.0/qblur=0.5/vbv_maxrate=8000/vbv_bufsize=7995/nal_hrd=vbr/ip_ratio=1.40/aq=1: 1.00
    Default : Да
    Forced : Нет
    Цветовой диапазон : Limited
    Основные цвета : BT.709
    Характеристики трансфера : BT.709
    Коэффициенты матрицы : BT.709
    Аудио #1
    Идентификатор : 2
    Формат : AC-3
    Формат/Информация : Audio Coding 3
    Идентификатор кодека : A_AC3
    Продолжительность : 52 м. 19 с.
    Вид битрейта : Постоянный
    Битрейт : 192 Кбит/сек
    Каналы : 2 канала
    Расположение каналов : Front: L R
    Частота : 48, 0 КГц
    Частота кадров : 31, 250 кадров/сек (1536 SPF)
    Битовая глубина : 16 бит
    Метод сжатия : С потерями
    Размер потока : 71, 8 Мбайт (4%)
    Язык : Russian
    ServiceKind/String : Complete Main
    Default : Да
    Forced : Нет
    Аудио #2
    Идентификатор : 3
    Формат : AC-3
    Формат/Информация : Audio Coding 3
    Идентификатор кодека : A_AC3
    Продолжительность : 52 м. 19 с.
    Вид битрейта : Постоянный
    Битрейт : 192 Кбит/сек
    Каналы : 2 канала
    Расположение каналов : Front: L R
    Частота : 48, 0 КГц
    Частота кадров : 31, 250 кадров/сек (1536 SPF)
    Битовая глубина : 16 бит
    Метод сжатия : С потерями
    Размер потока : 71, 8 Мбайт (4%)
    Язык : French
    ServiceKind/String : Complete Main
    Default : Нет
    Forced : Да
    Общее
    Уникальный идентификатор : 239748459150228681820559801466628727620 (0xB45DDFA82B62B1A2859D06C54315E344)
    Полное имя : F: КИНОMysteries of the Stone Age_720p2_Temoins eternels.mkv
    Формат : Matroska
    Версия формата : Version 4/Version 2
    Размер файла : 1, 60 Гбайт
    Продолжительность : 52 м. 19 с.
    Режим общего битрейта : Переменный
    Общий поток : 4386 Кбит/сек
    Дата кодирования : UTC 2018-03-30 15: 05: 10
    Программа кодирования : mkvmerge v6.9.1 (\'Blue Panther\') 64bit built on Apr 18 2014 18: 23: 38
    Библиотека кодирования : libebml v1.3.0 + libmatroska v1.4.1
    Видео
    Идентификатор : 1
    Формат : AVC
    Формат/Информация : Advanced Video Codec
    Профиль формата : High@L4
    Настройки формата : CABAC/3 Ref Frames
    Параметр CABAC формата : Да
    Параметр RefFrames формата : 3 кадра
    Идентификатор кодека : V_MPEG4/ISO/AVC
    Продолжительность : 52 м. 19 с.
    Вид битрейта : Переменный
    Битрейт : 4000 Кбит/сек
    Максимальный битрейт : 8000 Кбит/сек
    Ширина : 1280 пикселей
    Высота : 720 пикселей
    Соотношение сторон : 16: 9
    Режим частоты кадров : Постоянный
    Частота кадров : 25, 000 кадров/сек
    Стандарт вещания : NTSC
    Цветовое пространство : YUV
    Субдискретизация насыщенности : 4: 2: 0
    Битовая глубина : 8 бит
    Тип развёртки : Прогрессивная
    Бит/(Пиксели*Кадры) : 0.174
    Размер потока : 1, 43 Гбайт (89%)
    Библиотека кодирования : x264 core 114
    Настройки программы : cabac=1/ref=3/deblock=1: 0: 0/analyse=0x3: 0x113/me=hex/subme=7/psy=1/psy_rd=1.00: 0.00/mixed_ref=1/me_range=16/chroma_me=1/trellis=1/8x8dct=1/cqm=2/deadzone=21, 11/fast_pskip=1/chroma_qp_offset=-4/threads=6/sliced_threads=0/slices=1/nr=0/decimate=1/interlaced=0/constrained_intra=0/bframes=3/b_pyramid=0/b_adapt=1/b_bias=0/direct=1/weightb=1/open_gop=0/weightp=2/keyint=250/keyint_min=25/scenecut=40/intra_refresh=0/rc_lookahead=40/rc=2pass/mbtree=1/bitrate=4000/ratetol=1.0/qcomp=0.60/qpmin=5/qpmax=69/qpstep=4/cplxblur=20.0/qblur=0.5/vbv_maxrate=8000/vbv_bufsize=7995/nal_hrd=vbr/ip_ratio=1.40/aq=1: 1.00
    Default : Да
    Forced : Нет
    Цветовой диапазон : Limited
    Основные цвета : BT.709
    Характеристики трансфера : BT.709
    Коэффициенты матрицы : BT.709
    Аудио #1
    Идентификатор : 2
    Формат : AC-3
    Формат/Информация : Audio Coding 3
    Идентификатор кодека : A_AC3
    Продолжительность : 52 м. 19 с.
    Вид битрейта : Постоянный
    Битрейт : 192 Кбит/сек
    Каналы : 2 канала
    Расположение каналов : Front: L R
    Частота : 48, 0 КГц
    Частота кадров : 31, 250 кадров/сек (1536 SPF)
    Битовая глубина : 16 бит
    Метод сжатия : С потерями
    Размер потока : 71, 8 Мбайт (4%)
    Язык : Russian
    ServiceKind/String : Complete Main
    Default : Да
    Forced : Нет
    Аудио #2
    Идентификатор : 3
    Формат : AC-3
    Формат/Информация : Audio Coding 3
    Идентификатор кодека : A_AC3
    Продолжительность : 52 м. 19 с.
    Вид битрейта : Постоянный
    Битрейт : 192 Кбит/сек
    Каналы : 2 канала
    Расположение каналов : Front: L R
    Частота : 48, 0 КГц
    Частота кадров : 31, 250 кадров/сек (1536 SPF)
    Битовая глубина : 16 бит
    Метод сжатия : С потерями
    Размер потока : 71, 8 Мбайт (4%)
    Язык : French
    ServiceKind/String : Complete Main
    Default : Нет
    Forced : Да


    Люди и камни эпохи неолита/Mysteries of the Stone Ages (Les enigmes de lage de la pierre, Ratsel der Steinzeit) (2017) HDTVRip [H.264/720p] (серии 1-2 из 2)
    Рейтинг →
     (голосов: 1, оценка 4/5, голосовать можно 1 раз )

    Другие торренты по теме:

  • Люди / Humans (2018) HDTVRip (сезон 3, серии 1 из 8) LostFilm (обновляемая)
  • Люди на холме - Люди на холме (2014) [MP3|320 кб / с]<Folk-Rock>
  • Люди встречаются - Люди встречаются (2016) [MP3|320 Kbps] <Pop, Retro>
  • Эрик Берн | Игры, в которые играют люди. Люди, которые играют в игры (сборник) (2017) [FB2]
  • Жестокие люди / Fierce People (2005) DVD9
  • Люди Икс: Дни минувшего будущего / X-Men: Days of Future Past (2014) WEB-DL [720p]
  • Деловые люди (1962) DVDRip [H.264]
  • Люди и манекены (1974) DVDRip [H.264]


    • Комментарии (0):

      Информация

      Информация

        Посетители, находящиеся в группе Гости, не могут оставлять комментарии в данной новости.

        ↓ Меню




        ↓ Опрос

        Вы добавили сайт в закладки?
        Да
        Нет


        Top 10 за месяц (Передачи)