.
Авторизация | Регистрация
Хочешь лучшие торренты? Добавь свой email!
Добавить

Торрент скачать бесплатно

» » Зимние Олимпийские игры 2018. Пхёнчхан (Корея). Хоккей. Мужчины. Группа C. 1-й тур: Норвегия — Швеция (15.02.2018) HDTVRip [H.264 / 720p-LQ] [hand made 50fps] торрент скачать бесплатно


    Зимние Олимпийские игры 2018. Пхёнчхан (Корея). Хоккей. Мужчины. Группа C. 1-й тур: Норвегия — Швеция (15.02.2018) HDTVRip [H.264 / 720p-LQ] [hand made 50fps] торрент скачать бесплатно

    Опубликовал: Админ | Дата: 30-03-2018, 05:00 | .torrent скачали: 0

    Зимние Олимпийские игры 2018. Пхёнчхан (Корея). Хоккей. Мужчины. Группа C. 1-й тур: Норвегия — Швеция (15.02.2018) HDTVRip [H.264 / 720p-LQ] [hand made 50fps]Телекомпания: Матч ТВ HD
    Жанр: Спорт
    Комментатор: Владимир Гучек

    Описание
    15 февраля 2018 года, четверг. 10: 40 МСК
    XXIII Зимние Олимпийские игры 2018. Пхёнчхан (Корея).
    Хоккей. Мужчины.
    Группа C. 1-й тур: Норвегия — Швеция
    Арена: Хоккейный центр Каннын (Каннын, Южная Корея), 3961 зритель (40 % при вместимости 10000)
    Главные судьи: Роман Гофман (Россия), Тобиас Верли (Швейцария)
    Продолжительность: 01: 57: 24
    Качество видео: HDTVRip
    Язык озвучки: Русский
    Субтитры: отсутствуют
    Видео: AVC/H.264, 1280x720 (16: 9), ~3672 Kbps, 50 fps
    Аудио: AC3, 2 ch, 48 kHz, 192 Kbps

    Общее
    Уникальный идентификатор : 15591899684007900970706327758321954369 (0xBBAE40194DB03A07075CA958C2F2E41)
    Полное имя : F: 2018 Winter Olympics Games. PyeongChang (KOR)Хоккей(15.02.2018)_OWG 2018.Ice Hockey.Mens PR1.Gr_C. NOR - SWE.mkv
    Формат : Matroska
    Версия формата : Version 4/Version 2
    Размер файла : 3, 17 Гбайт
    Продолжительность : 1 ч. 57 м.
    Общий поток : 3867 Кбит/сек
    Дата кодирования : UTC 2018-02-18 07: 54: 27
    Программа кодирования : mkvmerge v20.0.0 (\'I Am The Sun\') 32-bit
    Библиотека кодирования : libebml v1.3.5 + libmatroska v1.4.8
    Видео
    Идентификатор : 1
    Формат : AVC
    Формат/Информация : Advanced Video Codec
    Профиль формата : High@L4.1
    Настройки формата : CABAC/4 Ref Frames
    Параметр CABAC формата : Да
    Параметр RefFrames формата : 4 кадра
    Идентификатор кодека : V_MPEG4/ISO/AVC
    Продолжительность : 1 ч. 57 м.
    Битрейт : 3672 Кбит/сек
    Номинальный битрейт : 4000 Кбит/сек
    Ширина : 1280 пикселей
    Высота : 720 пикселей
    Соотношение сторон : 16: 9
    Режим частоты кадров : Постоянный
    Частота кадров : 50, 000 кадров/сек
    Цветовое пространство : YUV
    Субдискретизация насыщенности : 4: 2: 0
    Битовая глубина : 8 бит
    Тип развёртки : Прогрессивная
    Бит/(Пиксели*Кадры) : 0.080
    Размер потока : 3, 01 Гбайт (95%)
    Библиотека кодирования : x264 core 155 r2901M 7d0ff22
    Настройки программы : cabac=1/ref=3/deblock=1: -2: -2/analyse=0x3: 0x133/me=hex/subme=7/psy=1/psy_rd=1.00: 0.20/mixed_ref=1/me_range=16/chroma_me=1/trellis=1/8x8dct=1/cqm=0/deadzone=21, 11/fast_pskip=1/chroma_qp_offset=-3/threads=9/lookahead_threads=1/sliced_threads=0/nr=0/decimate=1/interlaced=0/bluray_compat=0/constrained_intra=0/bframes=3/b_pyramid=2/b_adapt=2/b_bias=0/direct=3/weightb=1/open_gop=0/weightp=2/keyint=500/keyint_min=50/scenecut=40/intra_refresh=0/rc_lookahead=40/rc=cbr/mbtree=1/bitrate=4000/ratetol=1.0/qcomp=0.60/qpmin=0/qpmax=69/qpstep=4/vbv_maxrate=4000/vbv_bufsize=2857/nal_hrd=none/filler=0/ip_ratio=1.40/aq=1: 1.00
    Default : Да
    Forced : Нет
    Аудио
    Идентификатор : 2
    Формат : AC-3
    Формат/Информация : Audio Coding 3
    Идентификатор кодека : A_AC3
    Продолжительность : 1 ч. 57 м.
    Вид битрейта : Постоянный
    Битрейт : 192 Кбит/сек
    Каналы : 2 канала
    Расположение каналов : Front: L R
    Частота : 48, 0 КГц
    Частота кадров : 31, 250 кадров/сек (1536 SPF)
    Битовая глубина : 16 бит
    Метод сжатия : С потерями
    Размер потока : 161 Мбайт (5%)
    Язык : Russian
    ServiceKind/String : Complete Main
    Default : Да
    Forced : Нет

    Скриншоты для ознакомления



    Все одноименные релизы в Клубе
    Время раздачи: 24/7 (около 1 месяца)


    Зимние Олимпийские игры 2018. Пхёнчхан (Корея). Хоккей. Мужчины. Группа C. 1-й тур: Норвегия — Швеция (15.02.2018) HDTVRip [H.264/720p-LQ] [hand made 50fps]
    Рейтинг →
     (голосов: 1, оценка 5/5, голосовать можно 1 раз )

    Другие торренты по теме:

  • XXIII Зимние Олимпийские игры 2018. Пхёнчхан (Корея). Лыжные гонки. Женщины. Масс-старт 30 км. Классический стиль (25.02.2018) HDTVRip [H.264 / 720p-LQ]
  • XXIII Зимние Олимпийские игры 2018. Пхёнчхан (Корея). Лыжные гонки. Мужчины. Масс-старт 50 км. Классический стиль (24.02.2018) IPTV [H.264 / 1080p-LQ]
  • XXIII Зимние Олимпийские игры 2018. Пхёнчхан (Корея). Лыжные гонки. Мужчины. Масс-старт 50 км. Классический стиль (24.02.2018) HDTVRip [H.264 / 720p-LQ] [hand made 50fps]
  • XXIII Зимние Олимпийские игры 2018. Пхёнчхан (Корея). Лыжные гонки. Командный спринт. Свободный стиль (21.02.2018) HDTVRip [H.264 / 720p-LQ] [hand made 50fps]
  • XXIII Зимние Олимпийские игры 2018. Пхёнчхан (Корея). Лыжные гонки. Мужчины. Эстафета 4x10 км (18.02.2018) HDTVRip [H.264 / 720p-LQ] [hand made 50fps]
  • XXIII Зимние Олимпийские игры 2018. Пхёнчхан (Корея). Лыжные гонки. Женщины. Эстафета 4x5 км (17.02.2018) HDTVRip [H.264 / 720p-LQ] [hand made 50fps]
  • XXIII Зимние Олимпийские игры 2018. Пхёнчхан (Корея). Биатлон. Женщины. Эстафета 4x6 км (22.02.2018) HDTVRip [H.264 / 720p-LQ] [hand made 50fps]
  • XXIII Зимние Олимпийские игры 2018. Пхёнчхан (Корея). Биатлон. Мужчины. Эстафета 4x7,5 км (23.02.2018) HDTVRip [H.264 / 720p-LQ] [hand made 50fps]


    • Комментарии (0):

      Информация

      Информация

        Посетители, находящиеся в группе Гости, не могут оставлять комментарии в данной новости.

        ↓ Меню




        ↓ Опрос

        Вы добавили сайт в закладки?
        Да
        Нет


        Top 10 за месяц (Передачи)