.
Авторизация | Регистрация
Хочешь лучшие торренты? Добавь свой email!
Добавить

Торрент скачать бесплатно

  • support: webmaster@btracker.org
» » XXIII Зимние Олимпийские игры 2018. Пхёнчхан (Корея). Сноуборд. Мужчины. Сноуборд-кросс. Квалификация (15.02.2018) WEB-DL [H.264 / 720p-LQ] [hand made 50fps] торрент скачать бесплатно


    XXIII Зимние Олимпийские игры 2018. Пхёнчхан (Корея). Сноуборд. Мужчины. Сноуборд-кросс. Квалификация (15.02.2018) WEB-DL [H.264 / 720p-LQ] [hand made 50fps] торрент скачать бесплатно

    Опубликовал: Админ | Дата: 30-03-2018, 05:00 | .torrent скачали: 0

    XXIII Зимние Олимпийские игры 2018. Пхёнчхан (Корея). Сноуборд. Мужчины. Сноуборд-кросс. Квалификация (15.02.2018) WEB-DL [H.264 / 720p-LQ] [hand made 50fps]Телекомпания: TeleSport
    Жанр: Спорт

    Описание
    15 февраля 2018 года, четверг. 05: 00 МСК
    XXIII Зимние Олимпийские игры 2018. Пхёнчхан (Корея).
    Сноуборд. Мужчины.
    Сноуборд-кросс. Квалификация
    Арена: Сноу Парк Феникс (Пхёнчхан, Южная Корея)
    Продолжительность: 01: 36: 18
    Качество видео: WEB-DL
    Язык озвучки: Русский
    Субтитры: отсутствуют
    Видео: AVC/H.264, 1280x720 (16: 9), ~6147 Kbps, 50 fps
    Аудио: AAC, 2 ch, 48 kHz, 132 Kbps

    Общее
    Уникальный идентификатор : 263461054405280873864792878482623172664 (0xC634C0DDE5EAC89AD0C1A2FF33EE1038)
    Полное имя : F: 2018 Winter Olympics Games. PyeongChang (KOR)Сноуборд(15.02.2018)_OWG 2018.Snowboard. Mens Snowboard Cross Seeding.mkv
    Формат : Matroska
    Версия формата : Version 4/Version 2
    Размер файла : 4, 23 Гбайт
    Продолжительность : 1 ч. 36 м.
    Общий поток : 6282 Кбит/сек
    Дата кодирования : UTC 2018-02-21 23: 13: 21
    Программа кодирования : mkvmerge v20.0.0 (\'I Am The Sun\') 32-bit
    Библиотека кодирования : libebml v1.3.5 + libmatroska v1.4.8
    Видео
    Идентификатор : 1
    Формат : AVC
    Формат/Информация : Advanced Video Codec
    Профиль формата : Baseline@L3.2
    Настройки формата : 3 Ref Frames
    Параметр CABAC формата : Нет
    Параметр RefFrames формата : 3 кадра
    Идентификатор кодека : V_MPEG4/ISO/AVC
    Продолжительность : 1 ч. 36 м.
    Битрейт : 6147 Кбит/сек
    Ширина : 1280 пикселей
    Высота : 720 пикселей
    Соотношение сторон : 16: 9
    Режим частоты кадров : Постоянный
    Частота кадров : 50, 000 кадров/сек
    Цветовое пространство : YUV
    Субдискретизация насыщенности : 4: 2: 0
    Битовая глубина : 8 бит
    Тип развёртки : Прогрессивная
    Бит/(Пиксели*Кадры) : 0.133
    Размер потока : 4, 13 Гбайт (98%)
    Default : Да
    Forced : Нет
    Аудио
    Идентификатор : 2
    Формат : AAC
    Формат/Информация : Advanced Audio Codec
    Профиль формата : LC
    Идентификатор кодека : A_AAC-2
    Продолжительность : 1 ч. 36 м.
    Битрейт : 132 Кбит/сек
    Каналы : 2 канала
    Расположение каналов : Front: L R
    Частота : 48, 0 КГц
    Частота кадров : 46, 875 кадров/сек (1024 SPF)
    Метод сжатия : С потерями
    Размер потока : 89, 8 Мбайт (2%)
    Язык : Russian
    Default : Да
    Forced : Нет

    Скриншоты для ознакомления



    Все одноименные релизы в Клубе
    Время раздачи: 24/7 (около 1 месяца)


    XXIII Зимние Олимпийские игры 2018. Пхёнчхан (Корея). Сноуборд. Мужчины. Сноуборд-кросс. Квалификация (15.02.2018) WEB-DL [H.264/720p-LQ] [hand made 50fps]
    Рейтинг →
     (голосов: 1, оценка 5/5, голосовать можно 1 раз )

    Другие торренты по теме:

  • XXIII Зимние Олимпийские игры 2018. Пхёнчхан (Корея). Лыжные гонки. Женщины. Масс-старт 30 км. Классический стиль (25.02.2018) HDTVRip [H.264 / 720p-LQ]
  • XXIII Зимние Олимпийские игры 2018. Пхёнчхан (Корея). Лыжные гонки. Мужчины. Масс-старт 50 км. Классический стиль (24.02.2018) IPTV [H.264 / 1080p-LQ]
  • XXIII Зимние Олимпийские игры 2018. Пхёнчхан (Корея). Лыжные гонки. Мужчины. Масс-старт 50 км. Классический стиль (24.02.2018) HDTVRip [H.264 / 720p-LQ] [hand made 50fps]
  • XXIII Зимние Олимпийские игры 2018. Пхёнчхан (Корея). Лыжные гонки. Командный спринт. Свободный стиль (21.02.2018) HDTVRip [H.264 / 720p-LQ] [hand made 50fps]
  • XXIII Зимние Олимпийские игры 2018. Пхёнчхан (Корея). Лыжные гонки. Мужчины. Эстафета 4x10 км (18.02.2018) HDTVRip [H.264 / 720p-LQ] [hand made 50fps]
  • XXIII Зимние Олимпийские игры 2018. Пхёнчхан (Корея). Лыжные гонки. Женщины. Эстафета 4x5 км (17.02.2018) HDTVRip [H.264 / 720p-LQ] [hand made 50fps]
  • XXIII Зимние Олимпийские игры 2018. Пхёнчхан (Корея). Биатлон. Женщины. Эстафета 4x6 км (22.02.2018) HDTVRip [H.264 / 720p-LQ] [hand made 50fps]
  • XXIII Зимние Олимпийские игры 2018. Пхёнчхан (Корея). Биатлон. Мужчины. Эстафета 4x7,5 км (23.02.2018) HDTVRip [H.264 / 720p-LQ] [hand made 50fps]


    • Комментарии (0):

      Информация

      Информация

        Посетители, находящиеся в группе Гости, не могут оставлять комментарии в данной новости.

        ↓ Меню




        ↓ Опрос

        Вы добавили сайт в закладки?
        Да
        Нет


        Top 10 за месяц (Передачи)