.
Авторизация | Регистрация
Хочешь лучшие торренты? Добавь свой email!
Добавить

Торрент скачать бесплатно

» » Зимние Олимпийские игры 2018. Пхёнчхан (Корея). Горнолыжный спорт. Женщины. Слалом (16.02.2018) HDTVRip [H.264 / 720p-LQ] [hand made 50fps] торрент скачать бесплатно


    Зимние Олимпийские игры 2018. Пхёнчхан (Корея). Горнолыжный спорт. Женщины. Слалом (16.02.2018) HDTVRip [H.264 / 720p-LQ] [hand made 50fps] торрент скачать бесплатно

    Опубликовал: Админ | Дата: 30-03-2018, 05:00 | .torrent скачали: 0

    Зимние Олимпийские игры 2018. Пхёнчхан (Корея). Горнолыжный спорт. Женщины. Слалом (16.02.2018) HDTVRip [H.264 / 720p-LQ] [hand made 50fps]Телекомпания: Матч! Игра HD
    Жанр: Спорт
    Комментатор: Елизавета Кожевникова

    Описание
    16 февраля 2018 года, пятница. 04: 00 МСК
    XXIII Зимние Олимпийские игры 2018. Пхёнчхан (Корея).
    Горнолыжный спорт. Женщины.
    Слалом
    Арена: Горнолыжный стадион Ёнпхён (Пхёнчхан, Южная Корея)
    Релиз от: CSKAfan
    Продолжительность: 01: 57: 00
    Качество видео: HDTVRip
    Язык озвучки: Русский
    Субтитры: отсутствуют
    Видео: AVC/H.264, 1280x720 (16: 9), ~4108 Kbps, 50 fps
    Аудио: AC3, 2 ch, 48 kHz, 128 Kbps

    Общее
    Уникальный идентификатор : 153341986642194187846492777002586632530 (0x735C97A64154602B2979F93DCE007152)
    Полное имя : F: 2018 Winter Olympics Games. PyeongChang (KOR)Горные лыжи(16.02.2018)_OWG 2018.PyeongChang(KOR).Alpine Ski. Ladies Slalom_720p.mkv
    Формат : Matroska
    Версия формата : Version 4/Version 2
    Размер файла : 3, 46 Гбайт
    Продолжительность : 1 ч. 56 м.
    Общий поток : 4239 Кбит/сек
    Дата кодирования : UTC 2018-02-22 08: 32: 35
    Программа кодирования : mkvmerge v20.0.0 (\'I Am The Sun\') 32-bit
    Библиотека кодирования : libebml v1.3.5 + libmatroska v1.4.8
    Видео
    Идентификатор : 1
    Формат : AVC
    Формат/Информация : Advanced Video Codec
    Профиль формата : High@L3.2
    Настройки формата : CABAC/4 Ref Frames
    Параметр CABAC формата : Да
    Параметр RefFrames формата : 4 кадра
    Идентификатор кодека : V_MPEG4/ISO/AVC
    Продолжительность : 1 ч. 56 м.
    Битрейт : 4108 Кбит/сек
    Ширина : 1280 пикселей
    Высота : 720 пикселей
    Соотношение сторон : 16: 9
    Режим частоты кадров : Постоянный
    Частота кадров : 50, 000 кадров/сек
    Цветовое пространство : YUV
    Субдискретизация насыщенности : 4: 2: 0
    Битовая глубина : 8 бит
    Тип развёртки : Прогрессивная
    Бит/(Пиксели*Кадры) : 0.089
    Размер потока : 3, 36 Гбайт (97%)
    Default : Да
    Forced : Нет
    Аудио
    Идентификатор : 2
    Формат : AC-3
    Формат/Информация : Audio Coding 3
    Идентификатор кодека : A_AC3
    Продолжительность : 1 ч. 56 м.
    Вид битрейта : Постоянный
    Битрейт : 128 Кбит/сек
    Каналы : 2 канала
    Расположение каналов : Front: L R
    Частота : 48, 0 КГц
    Частота кадров : 31, 250 кадров/сек (1536 SPF)
    Битовая глубина : 16 бит
    Метод сжатия : С потерями
    Размер потока : 107 Мбайт (3%)
    Язык : Russian
    ServiceKind/String : Complete Main
    Default : Да
    Forced : Нет

    Скриншоты для ознакомления



    Все одноименные релизы в Клубе
    Время раздачи: 24/7 (около 1 месяца)


    Зимние Олимпийские игры 2018. Пхёнчхан (Корея). Горнолыжный спорт. Женщины. Слалом (16.02.2018) HDTVRip [H.264/720p-LQ] [hand made 50fps]
    Рейтинг →
     (голосов: 1, оценка 4/5, голосовать можно 1 раз )

    Другие торренты по теме:

  • XXIII Зимние Олимпийские игры 2018. Пхёнчхан (Корея). Лыжные гонки. Женщины. Масс-старт 30 км. Классический стиль (25.02.2018) HDTVRip [H.264 / 720p-LQ]
  • XXIII Зимние Олимпийские игры 2018. Пхёнчхан (Корея). Лыжные гонки. Мужчины. Масс-старт 50 км. Классический стиль (24.02.2018) IPTV [H.264 / 1080p-LQ]
  • XXIII Зимние Олимпийские игры 2018. Пхёнчхан (Корея). Лыжные гонки. Мужчины. Масс-старт 50 км. Классический стиль (24.02.2018) HDTVRip [H.264 / 720p-LQ] [hand made 50fps]
  • XXIII Зимние Олимпийские игры 2018. Пхёнчхан (Корея). Лыжные гонки. Командный спринт. Свободный стиль (21.02.2018) HDTVRip [H.264 / 720p-LQ] [hand made 50fps]
  • XXIII Зимние Олимпийские игры 2018. Пхёнчхан (Корея). Лыжные гонки. Мужчины. Эстафета 4x10 км (18.02.2018) HDTVRip [H.264 / 720p-LQ] [hand made 50fps]
  • XXIII Зимние Олимпийские игры 2018. Пхёнчхан (Корея). Лыжные гонки. Женщины. Эстафета 4x5 км (17.02.2018) HDTVRip [H.264 / 720p-LQ] [hand made 50fps]
  • XXIII Зимние Олимпийские игры 2018. Пхёнчхан (Корея). Биатлон. Женщины. Эстафета 4x6 км (22.02.2018) HDTVRip [H.264 / 720p-LQ] [hand made 50fps]
  • XXIII Зимние Олимпийские игры 2018. Пхёнчхан (Корея). Биатлон. Мужчины. Эстафета 4x7,5 км (23.02.2018) HDTVRip [H.264 / 720p-LQ] [hand made 50fps]


    • Комментарии (0):

      Информация

      Информация

        Посетители, находящиеся в группе Гости, не могут оставлять комментарии в данной новости.

        ↓ Меню




        ↓ Опрос

        Вы добавили сайт в закладки?
        Да
        Нет


        Top 10 за месяц (Передачи)