.
Авторизация | Регистрация
Хочешь лучшие торренты? Добавь свой email!
Добавить

Торрент скачать бесплатно

» » XXIII Зимние Олимпийские игры 2018. Пхёнчхан (Корея). Кёрлинг. Мужчины. 4-й тур. Швеция — США (16.02.2018) IPTV [H.264 / 720p-LQ] торрент скачать бесплатно


    XXIII Зимние Олимпийские игры 2018. Пхёнчхан (Корея). Кёрлинг. Мужчины. 4-й тур. Швеция — США (16.02.2018) IPTV [H.264 / 720p-LQ] торрент скачать бесплатно

    Опубликовал: Админ | Дата: 30-03-2018, 05:00 | .torrent скачали: 0

    XXIII Зимние Олимпийские игры 2018. Пхёнчхан (Корея). Кёрлинг. Мужчины. 4-й тур. Швеция — США (16.02.2018) IPTV [H.264 / 720p-LQ]Телекомпания: Матч ТВ HD
    Жанр: Спорт
    Комментаторы: Маргарита Фомина, Юрий Кудряев

    Описание
    16 февраля 2018 года, пятница. 03: 05 МСК
    XXIII Зимние Олимпийские игры 2018. Пхёнчхан (Корея)
    Кёрлинг. Мужчины. 4-й тур.
    Швеция — США
    Арена: Центр кёрлинга Каннын (Каннын, Южная Корея)
    Продолжительность: 02: 00: 37
    Качество видео: IPTV
    Язык озвучки: Русский
    Субтитры: отсутствуют
    Видео: AVC/H.264, 1280x720 (16: 9), ~3500 Kbps
    Аудио: AAC, 2 ch, 48 kHz, ~192 Kbps

    Общее
    Уникальный идентификатор : 244202763977831873362917904550360733120 (0xB7B7BDD72F356902F36C2941EFFF55C0)
    Полное имя : F: 2018 Winter Olympics Games. PyeongChang (KOR)Кёрлинг(16.02.2018)_OWG 2018.Curling. Men Session 4. SWE - USA.mkv
    Формат : Matroska
    Версия формата : Version 4/Version 2
    Размер файла : 2, 82 Гбайт
    Продолжительность : 2 ч. 0 м.
    Режим общего битрейта : Переменный
    Общий поток : 3343 Кбит/сек
    Дата кодирования : UTC 2018-02-19 11: 59: 32
    Программа кодирования : mkvmerge v20.0.0 (\'I Am The Sun\') 32-bit
    Библиотека кодирования : libebml v1.3.5 + libmatroska v1.4.8
    Видео
    Идентификатор : 1
    Формат : AVC
    Формат/Информация : Advanced Video Codec
    Профиль формата : High@L3.1
    Настройки формата : CABAC/4 Ref Frames
    Параметр CABAC формата : Да
    Параметр RefFrames формата : 4 кадра
    Идентификатор кодека : V_MPEG4/ISO/AVC
    Продолжительность : 2 ч. 0 м.
    Вид битрейта : Переменный
    Битрейт : 3151 Кбит/сек
    Максимальный битрейт : 3500 Кбит/сек
    Ширина : 1280 пикселей
    Высота : 720 пикселей
    Соотношение сторон : 16: 9
    Режим частоты кадров : Постоянный
    Частота кадров : 25, 000 кадров/сек
    Цветовое пространство : YUV
    Субдискретизация насыщенности : 4: 2: 0
    Битовая глубина : 8 бит
    Тип развёртки : Прогрессивная
    Бит/(Пиксели*Кадры) : 0.137
    Размер потока : 2, 65 Гбайт (94%)
    Default : Да
    Forced : Нет
    Аудио
    Идентификатор : 2
    Формат : AAC
    Формат/Информация : Advanced Audio Codec
    Профиль формата : LC
    Идентификатор кодека : A_AAC-2
    Продолжительность : 2 ч. 0 м.
    Битрейт : 192 Кбит/сек
    Каналы : 2 канала
    Расположение каналов : Front: L R
    Частота : 48, 0 КГц
    Частота кадров : 46, 875 кадров/сек (1024 SPF)
    Метод сжатия : С потерями
    Размер потока : 163 Мбайт (6%)
    Язык : Russian
    Default : Да
    Forced : Нет

    Скриншоты для ознакомления



    Все одноименные релизы в Клубе
    Время раздачи: 24/7 (около 1 месяца)


    XXIII Зимние Олимпийские игры 2018. Пхёнчхан (Корея). Кёрлинг. Мужчины. 4-й тур. Швеция — США (16.02.2018) IPTV [H.264/720p-LQ]
    Рейтинг →
     (голосов: 1, оценка 5/5, голосовать можно 1 раз )

    Другие торренты по теме:

  • XXIII Зимние Олимпийские игры 2018. Пхёнчхан (Корея). Лыжные гонки. Женщины. Масс-старт 30 км. Классический стиль (25.02.2018) HDTVRip [H.264 / 720p-LQ]
  • XXIII Зимние Олимпийские игры 2018. Пхёнчхан (Корея). Лыжные гонки. Мужчины. Масс-старт 50 км. Классический стиль (24.02.2018) IPTV [H.264 / 1080p-LQ]
  • XXIII Зимние Олимпийские игры 2018. Пхёнчхан (Корея). Лыжные гонки. Мужчины. Масс-старт 50 км. Классический стиль (24.02.2018) HDTVRip [H.264 / 720p-LQ] [hand made 50fps]
  • XXIII Зимние Олимпийские игры 2018. Пхёнчхан (Корея). Лыжные гонки. Командный спринт. Свободный стиль (21.02.2018) HDTVRip [H.264 / 720p-LQ] [hand made 50fps]
  • XXIII Зимние Олимпийские игры 2018. Пхёнчхан (Корея). Лыжные гонки. Мужчины. Эстафета 4x10 км (18.02.2018) HDTVRip [H.264 / 720p-LQ] [hand made 50fps]
  • XXIII Зимние Олимпийские игры 2018. Пхёнчхан (Корея). Лыжные гонки. Женщины. Эстафета 4x5 км (17.02.2018) HDTVRip [H.264 / 720p-LQ] [hand made 50fps]
  • XXIII Зимние Олимпийские игры 2018. Пхёнчхан (Корея). Биатлон. Женщины. Эстафета 4x6 км (22.02.2018) HDTVRip [H.264 / 720p-LQ] [hand made 50fps]
  • XXIII Зимние Олимпийские игры 2018. Пхёнчхан (Корея). Биатлон. Мужчины. Эстафета 4x7,5 км (23.02.2018) HDTVRip [H.264 / 720p-LQ] [hand made 50fps]


    • Комментарии (0):

      Информация

      Информация

        Посетители, находящиеся в группе Гости, не могут оставлять комментарии в данной новости.

        ↓ Меню




        ↓ Опрос

        Вы добавили сайт в закладки?
        Да
        Нет


        Top 10 за месяц (Передачи)