.
Авторизация | Регистрация
Хочешь лучшие торренты? Добавь свой email!
Добавить

Торрент скачать бесплатно

  • support: webmaster@btracker.org
» » XXIII Зимние Олимпийские игры 2018. Пхёнчхан (Корея). Фигурное катание. Мужчины. Короткая программа (16.02.2018) HDTVRip [H.264 / 720p-LQ] [hand made 50fps] торрент скачать бесплатно


    XXIII Зимние Олимпийские игры 2018. Пхёнчхан (Корея). Фигурное катание. Мужчины. Короткая программа (16.02.2018) HDTVRip [H.264 / 720p-LQ] [hand made 50fps] торрент скачать бесплатно

    Опубликовал: Админ | Дата: 30-03-2018, 05:00 | .torrent скачали: 1

    XXIII Зимние Олимпийские игры 2018. Пхёнчхан (Корея). Фигурное катание. Мужчины. Короткая программа (16.02.2018) HDTVRip [H.264 / 720p-LQ] [hand made 50fps]Телекомпания: Россия 1 HD
    Жанр: Спорт
    Комментаторы: Алексей Ягудин, Андрей Журанков

    Описание
    16 февраля 2018 года, пятница. 04: 00 МСК
    XXIII Зимние Олимпийские игры 2018. Пхёнчхан (Корея).
    Фигурное катание. Мужчины.
    Короткая программа
    Арена: Ледовая арена Каннын (Каннын, Южная Корея)
    Релиз от: Багга
    Продолжительность: 03: 48: 39
    Качество видео: HDTVRip
    Язык озвучки: Русский
    Субтитры: отсутствуют
    Видео: AVC/H.264, 1280x720 (16: 9), ~3500 Kbps, 50 fps
    Аудио: AAC, 2 ch, 48 kHz, 128 Kbps

    Общее
    Уникальный идентификатор : 323667046758738225923167880506525080537 (0xF3800177F0E2894F708400CA264FDBD9)
    Полное имя : F: 2018 Winter Olympics Games. PyeongChang (KOR)Фигурное катание(16.02.2018)_OWG 2018.Figure Skating. Men Single Skating SP_Россия1 HD.mkv
    Формат : Matroska
    Версия формата : Version 4/Version 2
    Размер файла : 5, 79 Гбайт
    Продолжительность : 3 ч. 48 м.
    Общий поток : 3624 Кбит/сек
    Дата кодирования : UTC 2018-02-20 14: 38: 26
    Программа кодирования : mkvmerge v20.0.0 (\'I Am The Sun\') 32-bit
    Библиотека кодирования : libebml v1.3.5 + libmatroska v1.4.8
    Видео
    Идентификатор : 1
    Формат : AVC
    Формат/Информация : Advanced Video Codec
    Профиль формата : High@L3.2
    Настройки формата : CABAC/4 Ref Frames
    Параметр CABAC формата : Да
    Параметр RefFrames формата : 4 кадра
    Идентификатор кодека : V_MPEG4/ISO/AVC
    Продолжительность : 3 ч. 48 м.
    Битрейт : 3500 Кбит/сек
    Ширина : 1280 пикселей
    Высота : 720 пикселей
    Соотношение сторон : 16: 9
    Режим частоты кадров : Постоянный
    Частота кадров : 50, 000 кадров/сек
    Цветовое пространство : YUV
    Субдискретизация насыщенности : 4: 2: 0
    Битовая глубина : 8 бит
    Тип развёртки : Прогрессивная
    Бит/(Пиксели*Кадры) : 0.076
    Размер потока : 5, 58 Гбайт (96%)
    Библиотека кодирования : x264 core 146 r2538 121396c
    Настройки программы : cabac=1/ref=3/deblock=1: 0: 0/analyse=0x3: 0x113/me=hex/subme=7/psy=1/psy_rd=1.00: 0.00/mixed_ref=1/me_range=16/chroma_me=1/trellis=1/8x8dct=1/cqm=0/deadzone=21, 11/fast_pskip=1/chroma_qp_offset=-2/threads=12/lookahead_threads=2/sliced_threads=0/nr=0/decimate=1/interlaced=0/bluray_compat=0/constrained_intra=0/bframes=3/b_pyramid=2/b_adapt=1/b_bias=0/direct=1/weightb=1/open_gop=0/weightp=2/keyint=250/keyint_min=25/scenecut=40/intra_refresh=0/rc_lookahead=40/rc=abr/mbtree=1/bitrate=3500/ratetol=1.0/qcomp=0.60/qpmin=0/qpmax=69/qpstep=4/ip_ratio=1.40/aq=1: 1.00
    Default : Да
    Forced : Нет
    Аудио
    Идентификатор : 2
    Формат : AAC
    Формат/Информация : Advanced Audio Codec
    Профиль формата : LC
    Идентификатор кодека : A_AAC-2
    Продолжительность : 3 ч. 48 м.
    Битрейт : 128 Кбит/сек
    Каналы : 2 канала
    Расположение каналов : Front: L R
    Частота : 48, 0 КГц
    Частота кадров : 46, 875 кадров/сек (1024 SPF)
    Метод сжатия : С потерями
    Задержка видео : 9 мс.
    Размер потока : 209 Мбайт (4%)
    Язык : Russian
    Default : Да
    Forced : Нет

    Скриншоты для ознакомления



    Все одноименные релизы в Клубе
    Время раздачи: 24/7 (около 1 месяца)


    XXIII Зимние Олимпийские игры 2018. Пхёнчхан (Корея). Фигурное катание. Мужчины. Короткая программа (16.02.2018) HDTVRip [H.264/720p-LQ] [hand made 50fps]
    Рейтинг →
     (голосов: 1, оценка 4/5, голосовать можно 1 раз )

    Другие торренты по теме:

  • XXIII Зимние Олимпийские игры 2018. Пхёнчхан (Корея). Лыжные гонки. Женщины. Масс-старт 30 км. Классический стиль (25.02.2018) HDTVRip [H.264 / 720p-LQ]
  • XXIII Зимние Олимпийские игры 2018. Пхёнчхан (Корея). Лыжные гонки. Мужчины. Масс-старт 50 км. Классический стиль (24.02.2018) IPTV [H.264 / 1080p-LQ]
  • XXIII Зимние Олимпийские игры 2018. Пхёнчхан (Корея). Лыжные гонки. Мужчины. Масс-старт 50 км. Классический стиль (24.02.2018) HDTVRip [H.264 / 720p-LQ] [hand made 50fps]
  • XXIII Зимние Олимпийские игры 2018. Пхёнчхан (Корея). Лыжные гонки. Командный спринт. Свободный стиль (21.02.2018) HDTVRip [H.264 / 720p-LQ] [hand made 50fps]
  • XXIII Зимние Олимпийские игры 2018. Пхёнчхан (Корея). Лыжные гонки. Мужчины. Эстафета 4x10 км (18.02.2018) HDTVRip [H.264 / 720p-LQ] [hand made 50fps]
  • XXIII Зимние Олимпийские игры 2018. Пхёнчхан (Корея). Лыжные гонки. Женщины. Эстафета 4x5 км (17.02.2018) HDTVRip [H.264 / 720p-LQ] [hand made 50fps]
  • XXIII Зимние Олимпийские игры 2018. Пхёнчхан (Корея). Биатлон. Женщины. Эстафета 4x6 км (22.02.2018) HDTVRip [H.264 / 720p-LQ] [hand made 50fps]
  • XXIII Зимние Олимпийские игры 2018. Пхёнчхан (Корея). Биатлон. Мужчины. Эстафета 4x7,5 км (23.02.2018) HDTVRip [H.264 / 720p-LQ] [hand made 50fps]


    • Комментарии (0):

      Информация

      Информация

        Посетители, находящиеся в группе Гости, не могут оставлять комментарии в данной новости.

        ↓ Меню




        ↓ Опрос

        Вы добавили сайт в закладки?
        Да
        Нет


        Top 10 за месяц (Передачи)