.
Авторизация | Регистрация
Хочешь лучшие торренты? Добавь свой email!
Добавить

Торрент скачать бесплатно

» » Зимние Олимпийские игры 2018. Пхёнчхан (Корея). Хоккей. Мужчины. Финал. Россия (ОАР) - Германия (25.02.2018) HDTV [H.264 / 1080i] торрент скачать бесплатно


    Зимние Олимпийские игры 2018. Пхёнчхан (Корея). Хоккей. Мужчины. Финал. Россия (ОАР) - Германия (25.02.2018) HDTV [H.264 / 1080i] торрент скачать бесплатно

    Опубликовал: Админ | Дата: 30-03-2018, 05:00 | .torrent скачали: 3

    Зимние Олимпийские игры 2018. Пхёнчхан (Корея). Хоккей. Мужчины. Финал. Россия (ОАР) - Германия (25.02.2018) HDTV [H.264 / 1080i]Производство: Первый HD
    Жанр: Спорт

    Описание
    Сборная России (ОАР) вышла в финал олимпийского турнира по хоккею впервые с 1998 года. За золото россияне поборются с командой Германии, которая сенсационно обыграла Канаду в полуфинале.
    25 февраля 2018, воскресенье. 07: 00 МСК.
    XXIII Зимние Олимпийские игры 2018. Пхёнчхан (Корея)
    Хоккей. Мужчины. Финал. Россия (ОАР) - Германия
    Стадион: Хоккейный центр Каннын (Каннын)
    Главные судьи: Лемелин Марк (США), Рянтеля Алекси (Финляндия)
    Релиз от: Маrilуn Моnrое
    Продолжительность: 02: 57: 04
    Качество видео: HDTV
    Язык озвучки: Русский (Александр Кузмак и Игорь Ларионов)
    Субтитры: Отсутствуют
    Видео: AVC/H.264, 1920x1080, 8450 Kbps
    Аудио 1: MP2, 2 ch, 224 Kbps
    Аудио 2: AC3, 6 ch, 384 Kbps

    Общее
    Полное имя : 1 Период.mkv
    Формат : Matroska
    Версия формата : Version 4/Version 2
    Размер файла : 2, 62 Гбайт
    Продолжительность : 41 м. 20 с.
    Общий поток : 9062 Кбит/сек
    Дата кодирования : UTC 2018-02-25 05: 33: 34
    Программа кодирования : mkvmerge v12.0.0 (\'Trust/Lust\') 32bit
    Библиотека кодирования : libebml v1.3.4 + libmatroska v1.4.5
    Видео
    Идентификатор : 1
    Формат : AVC
    Формат/Информация : Advanced Video Codec
    Профиль формата : High@L4
    Настройки формата : CABAC/3 Ref Frames
    Параметр CABAC формата : Да
    Параметр RefFrames формата : 3 кадра
    Параметр GOP формата : M=4, N=32
    Идентификатор кодека : V_MPEG4/ISO/AVC
    Продолжительность : 41 м. 20 с.
    Битрейт : 8450 Кбит/сек
    Ширина : 1920 пикселей
    Высота : 1080 пикселей
    Соотношение сторон : 16: 9
    Режим частоты кадров : Переменный
    Частота кадров : 50, 000 кадров/сек
    Частота кадров в оригинале : 25, 000 кадров/сек
    Стандарт вещания : Component
    Цветовое пространство : YUV
    Субдискретизация насыщенности : 4: 2: 0
    Битовая глубина : 8 бит
    Тип развёртки : Чересстрочная
    Метод сохранения типа развёртки : Раздельные поля
    Порядок развёртки : Верхнее поле первое
    Бит/(Пиксели*Кадры) : 0.082
    Размер потока : 2, 44 Гбайт (93%)
    Default : Да
    Forced : Нет
    Аудио #1
    Идентификатор : 2
    Формат : MPEG Audio
    Версия формата : Version 1
    Профиль формата : Layer 2
    Идентификатор кодека : A_MPEG/L2
    Идентификатор кодека/Подсказка : MP2
    Продолжительность : 41 м. 19 с.
    Вид битрейта : Постоянный
    Битрейт : 224 Кбит/сек
    Каналы : 2 канала
    Частота : 48, 0 КГц
    Частота кадров : 41, 667 кадра/сек (1152 SPF)
    Метод сжатия : С потерями
    Задержка видео : 133 мс.
    Размер потока : 66, 2 Мбайт (2%)
    Язык : Russian
    Default : Да
    Forced : Нет
    Аудио #2
    Идентификатор : 3
    Формат : AC-3
    Формат/Информация : Audio Coding 3
    Параметр Endianness формата : Big
    Идентификатор кодека : A_AC3
    Продолжительность : 41 м. 19 с.
    Вид битрейта : Постоянный
    Битрейт : 384 Кбит/сек
    Каналы : 6 каналов
    Расположение каналов : Front: L C R, Side: L R, LFE
    Частота : 48, 0 КГц
    Частота кадров : 31, 250 кадров/сек (1536 SPF)
    Битовая глубина : 16 бит
    Метод сжатия : С потерями
    Задержка видео : 149 мс.
    Размер потока : 114 Мбайт (4%)
    Язык : Russian
    Default : Нет
    Forced : Нет

    Скриншоты для ознакомления


    Все одноименные релизы на NNM-Club
    Время раздачи: С 9: 00 до 21: 00


    Зимние Олимпийские игры 2018. Пхёнчхан (Корея). Хоккей. Мужчины. Финал. Россия (ОАР) - Германия (25.02.2018) HDTV [H.264/1080i]
    Рейтинг →
     (голосов: 1, оценка 4/5, голосовать можно 1 раз )

    Другие торренты по теме:

  • XXIII Зимние Олимпийские игры 2018. Пхёнчхан (Корея). Лыжные гонки. Женщины. Масс-старт 30 км. Классический стиль (25.02.2018) HDTVRip [H.264 / 720p-LQ]
  • XXIII Зимние Олимпийские игры 2018. Пхёнчхан (Корея). Лыжные гонки. Мужчины. Масс-старт 50 км. Классический стиль (24.02.2018) IPTV [H.264 / 1080p-LQ]
  • XXIII Зимние Олимпийские игры 2018. Пхёнчхан (Корея). Лыжные гонки. Мужчины. Масс-старт 50 км. Классический стиль (24.02.2018) HDTVRip [H.264 / 720p-LQ] [hand made 50fps]
  • XXIII Зимние Олимпийские игры 2018. Пхёнчхан (Корея). Лыжные гонки. Командный спринт. Свободный стиль (21.02.2018) HDTVRip [H.264 / 720p-LQ] [hand made 50fps]
  • XXIII Зимние Олимпийские игры 2018. Пхёнчхан (Корея). Лыжные гонки. Мужчины. Эстафета 4x10 км (18.02.2018) HDTVRip [H.264 / 720p-LQ] [hand made 50fps]
  • XXIII Зимние Олимпийские игры 2018. Пхёнчхан (Корея). Лыжные гонки. Женщины. Эстафета 4x5 км (17.02.2018) HDTVRip [H.264 / 720p-LQ] [hand made 50fps]
  • XXIII Зимние Олимпийские игры 2018. Пхёнчхан (Корея). Биатлон. Женщины. Эстафета 4x6 км (22.02.2018) HDTVRip [H.264 / 720p-LQ] [hand made 50fps]
  • XXIII Зимние Олимпийские игры 2018. Пхёнчхан (Корея). Биатлон. Мужчины. Эстафета 4x7,5 км (23.02.2018) HDTVRip [H.264 / 720p-LQ] [hand made 50fps]


    • Комментарии (0):

      Информация

      Информация

        Посетители, находящиеся в группе Гости, не могут оставлять комментарии в данной новости.

        ↓ Меню




        ↓ Опрос

        Вы добавили сайт в закладки?
        Да
        Нет


        Top 10 за месяц (Передачи)