.
Авторизация | Регистрация
Хочешь лучшие торренты? Добавь свой email!
Добавить

Торрент скачать бесплатно

» » Зимние Олимпийские игры 2018. Пхёнчхан (Корея). Хоккей. Женщины. 1 / 4 финала. Финляндия — Швеция (17.02.2018) IPTV [H.264 / 1080p-LQ] торрент скачать бесплатно


    Зимние Олимпийские игры 2018. Пхёнчхан (Корея). Хоккей. Женщины. 1 / 4 финала. Финляндия — Швеция (17.02.2018) IPTV [H.264 / 1080p-LQ] торрент скачать бесплатно

    Опубликовал: Админ | Дата: 30-03-2018, 05:00 | .torrent скачали: 0

    Зимние Олимпийские игры 2018. Пхёнчхан (Корея). Хоккей. Женщины. 1 / 4 финала. Финляндия — Швеция (17.02.2018) IPTV [H.264 / 1080p-LQ]Телекомпания: Матч! Игра HD
    Жанр: Спорт
    Комментатор: Кирилл Корнилов

    Описание
    17 февраля 2018 года, суббота. 10: 40 МСК
    XXIII Зимние Олимпийские игры 2018. Пхёнчхан (Корея).
    Хоккей. Женщины.
    1/4 финала. Финляндия — Швеция
    Арена: Хоккейный центр Квандон (Пхёнчхан, Южная Корея)
    Главные судьи: Драгомира Фиалова(Швейцария), Кэти Гуэй (США).
    Продолжительность: 01: 51: 28
    Качество видео: IPTV
    Язык озвучки: Русский
    Субтитры: отсутствуют
    Видео: AVC/H.264, 1280x720 (16: 9), ~4065 Kbps
    Аудио: AAC, 2 ch, 48 kHz, 192 Kbps

    Общее
    Уникальный идентификатор : 94302456101334160333130317885189341097 (0x46F1FE0E279497C14C60CBC68DAB3FA9)
    Полное имя : F: 2018 Winter Olympics Games. PyeongChang (KOR)Хоккей(17.02.2018)_OWG 2018.Ice Hockey.Womens Play-offs QF. FIN - SWE.mkv
    Формат : Matroska
    Версия формата : Version 4/Version 2
    Размер файла : 3, 31 Гбайт
    Продолжительность : 1 ч. 51 м.
    Режим общего битрейта : Переменный
    Общий поток : 4256 Кбит/сек
    Дата кодирования : UTC 2018-02-25 12: 25: 11
    Программа кодирования : mkvmerge v21.0.0 (\'Tardigrades Will Inherit The Earth\') 32-bit
    Библиотека кодирования : libebml v1.3.5 + libmatroska v1.4.8
    Видео
    Идентификатор : 1
    Формат : AVC
    Формат/Информация : Advanced Video Codec
    Профиль формата : High@L4
    Настройки формата : CABAC/4 Ref Frames
    Параметр CABAC формата : Да
    Параметр RefFrames формата : 4 кадра
    Идентификатор кодека : V_MPEG4/ISO/AVC
    Продолжительность : 1 ч. 51 м.
    Вид битрейта : Переменный
    Битрейт : 4065 Кбит/сек
    Максимальный битрейт : 2091 Кбит/сек
    Ширина : 1920 пикселей
    Высота : 1080 пикселей
    Соотношение сторон : 16: 9
    Режим частоты кадров : Постоянный
    Частота кадров : 25, 000 кадров/сек
    Цветовое пространство : YUV
    Субдискретизация насыщенности : 4: 2: 0
    Битовая глубина : 8 бит
    Тип развёртки : Прогрессивная
    Бит/(Пиксели*Кадры) : 0.078
    Размер потока : 3, 16 Гбайт (95%)
    Default : Да
    Forced : Нет
    Аудио
    Идентификатор : 2
    Формат : AAC
    Формат/Информация : Advanced Audio Codec
    Профиль формата : LC
    Идентификатор кодека : A_AAC-2
    Продолжительность : 1 ч. 51 м.
    Битрейт : 192 Кбит/сек
    Каналы : 2 канала
    Расположение каналов : Front: L R
    Частота : 48, 0 КГц
    Частота кадров : 46, 875 кадров/сек (1024 SPF)
    Метод сжатия : С потерями
    Размер потока : 151 Мбайт (4%)
    Язык : Russian
    Default : Да
    Forced : Нет

    Скриншоты для ознакомления



    Все одноименные релизы в Клубе
    Время раздачи: 24/7 (около 1 месяца)


    Зимние Олимпийские игры 2018. Пхёнчхан (Корея). Хоккей. Женщины. 1/4 финала. Финляндия — Швеция (17.02.2018) IPTV [H.264/1080p-LQ]
    Рейтинг →
     (голосов: 1, оценка 4/5, голосовать можно 1 раз )

    Другие торренты по теме:

  • XXIII Зимние Олимпийские игры 2018. Пхёнчхан (Корея). Лыжные гонки. Женщины. Масс-старт 30 км. Классический стиль (25.02.2018) HDTVRip [H.264 / 720p-LQ]
  • XXIII Зимние Олимпийские игры 2018. Пхёнчхан (Корея). Лыжные гонки. Мужчины. Масс-старт 50 км. Классический стиль (24.02.2018) IPTV [H.264 / 1080p-LQ]
  • XXIII Зимние Олимпийские игры 2018. Пхёнчхан (Корея). Лыжные гонки. Мужчины. Масс-старт 50 км. Классический стиль (24.02.2018) HDTVRip [H.264 / 720p-LQ] [hand made 50fps]
  • XXIII Зимние Олимпийские игры 2018. Пхёнчхан (Корея). Лыжные гонки. Командный спринт. Свободный стиль (21.02.2018) HDTVRip [H.264 / 720p-LQ] [hand made 50fps]
  • XXIII Зимние Олимпийские игры 2018. Пхёнчхан (Корея). Лыжные гонки. Мужчины. Эстафета 4x10 км (18.02.2018) HDTVRip [H.264 / 720p-LQ] [hand made 50fps]
  • XXIII Зимние Олимпийские игры 2018. Пхёнчхан (Корея). Лыжные гонки. Женщины. Эстафета 4x5 км (17.02.2018) HDTVRip [H.264 / 720p-LQ] [hand made 50fps]
  • XXIII Зимние Олимпийские игры 2018. Пхёнчхан (Корея). Биатлон. Женщины. Эстафета 4x6 км (22.02.2018) HDTVRip [H.264 / 720p-LQ] [hand made 50fps]
  • XXIII Зимние Олимпийские игры 2018. Пхёнчхан (Корея). Биатлон. Мужчины. Эстафета 4x7,5 км (23.02.2018) HDTVRip [H.264 / 720p-LQ] [hand made 50fps]


    • Комментарии (0):

      Информация

      Информация

        Посетители, находящиеся в группе Гости, не могут оставлять комментарии в данной новости.

        ↓ Меню




        ↓ Опрос

        Вы добавили сайт в закладки?
        Да
        Нет


        Top 10 за месяц (Передачи)