.
Авторизация | Регистрация
Хочешь лучшие торренты? Добавь свой email!
Добавить

Торрент скачать бесплатно

  • support: webmaster@btracker.org
» » На ножах (2017-2018) WEB-DL [H.264 / 720p-LQ] (сезон 3, выпуски 1-14 из ) (обновляемая) торрент скачать бесплатно


    На ножах (2017-2018) WEB-DL [H.264 / 720p-LQ] (сезон 3, выпуски 1-14 из ) (обновляемая) торрент скачать бесплатно

    Опубликовал: Админ | Дата: 22-03-2018, 05:00 | .torrent скачали: 290

    На ножах (2017-2018) WEB-DL [H.264 / 720p-LQ] (сезон 3, выпуски 1-14 из ) (обновляемая)Телекомпания: Пятница
    Жанр: ТВ-шоу, Телепередача
    Ведущие: Константин Ивлев

    Описание

    Мы проверили сотни ресторанов по всей стране. И не зря! Многие из тех, кто откровенно не дотягивал или спотыкался в погоне за высокими стандартами сервиса, встали на путь исправления. Они обратились за помощью к легендарному шефу, гуру ресторанного бизнеса, добрейшему и терпеливейшему Мастеру своего дела Константину Ивлеву! Терпеливый мастер приедет и научит, как дальше жить, готовить и обслуживать посетителей, чтобы стать приличным и прибыльным заведением. Только выдержат ли новиспеченные ученики эту школу? Ведь Терпение мастера не безгранично! Обладатель тяжелой руки и адепт шоковой терапии рубит с плеча и делает фарш из всех, кто отказывается понимать с первого раза. Но результат того стоит! Встань на путь исправления! Но бойся гнева Терпеливого Мастера!
    Продолжительность: ~00: 48: 00 выпуск
    Качество видео: WEB-DL
    Видео: AVC/H.264, 1280х720, ~3660 Kbps
    Аудио: AC3, 2 ch, 192 Kbps

    General
    Unique ID : 104046334244157898455790304758512090881 (0x4E469856AB1B9715B9634D176865FF01)
    Complete name : F: ТЕЛЕПЕРЕДАЧИНА НОЖАХНа ножах.s03.2017-2018.WEB-DL.(720p)На ножах.S03E01.2017-2018.WEB-DL.(720p) - Санкт-Петербург. Два хвоста.mkv
    Format : Matroska
    Format version : Version 4/Version 2
    File size : 1.31 GiB
    Duration : 47 min 40 s
    Overall bit rate : 3 926 kb/s
    Writing application : Lavf57.25.100
    Writing library : Lavf57.25.100
    Video
    ID : 1
    Format : AVC
    Format/Info : Advanced Video Codec
    Format profile : Main@L4.1
    Format settings : CABAC/4 Ref Frames
    Format settings, CABAC : Yes
    Format settings, ReFrames : 4 frames
    Codec ID : V_MPEG4/ISO/AVC
    Duration : 47 min 40 s
    Bit rate : 3 656 kb/s
    Width : 1 280 pixels
    Height : 720 pixels
    Display aspect ratio : 16: 9
    Frame rate mode : Constant
    Frame rate : 25.000 FPS
    Standard : PAL
    Color space : YUV
    Chroma subsampling : 4: 2: 0
    Bit depth : 8 bits
    Scan type : Progressive
    Bits/(Pixel*Frame) : 0.159
    Stream size : 1.22 GiB (93%)
    Writing library : AVC Coding
    Language : English
    Default : Yes
    Forced : No
    Color range : Limited
    Color primaries : BT.709
    Transfer characteristics : BT.709
    Matrix coefficients : BT.709
    Audio
    ID : 2
    Format : AC-3
    Format/Info : Audio Coding 3
    Codec ID : A_AC3
    Duration : 47 min 40 s
    Bit rate mode : Constant
    Bit rate : 192 kb/s
    Channel(s) : 2 channels
    Channel positions : Front: L R
    Sampling rate : 44.1 kHz
    Frame rate : 28.711 FPS (1536 SPF)
    Bit depth : 16 bits
    Compression mode : Lossy
    Stream size : 65.5 MiB (5%)
    Writing library : Lavc57.24.102 ac3
    Language : English
    Service kind : Complete Main
    Default : Yes
    Forced : No


    На ножах (2017-2018) WEB-DL [H.264/720p-LQ] (сезон 3, выпуски 1-14 из ) (обновляемая)
    Рейтинг →
     (голосов: 1, оценка 5/5, голосовать можно 1 раз )

    Другие торренты по теме:

  • Карстен Боте | Книга о ножах. Ножи. Топоры. Инструменты (2010) [DJVU]
  • На ножах (2016-2017) WEBRip (сезон 2, выпуски 1-10 из ) [обновляемая]


    • Комментарии (0):

      Информация

      Информация

        Посетители, находящиеся в группе Гости, не могут оставлять комментарии в данной новости.

        ↓ Меню




        ↓ Опрос

        Вы добавили сайт в закладки?
        Да
        Нет


        Top 10 за месяц (Передачи)