.
Авторизация | Регистрация
Хочешь лучшие торренты? Добавь свой email!
Добавить

Торрент скачать бесплатно

  • support: webmaster@btracker.org
» » Футбол. Чемпионат Мира 2018. Финальный турнир. Жеребьевка (01.12.2017) WEB-DL [H.264 / 720p-LQ] торрент скачать бесплатно


    Футбол. Чемпионат Мира 2018. Финальный турнир. Жеребьевка (01.12.2017) WEB-DL [H.264 / 720p-LQ] торрент скачать бесплатно

    Опубликовал: Админ | Дата: 3-12-2017, 05:00 | .torrent скачали: 4

    Футбол. Чемпионат Мира 2018. Финальный турнир. Жеребьевка (01.12.2017) WEB-DL [H.264 / 720p-LQ]Телекомпания: Первый канал HD
    Жанр: Церемония, Спорт
    Комментаторы: Виктор Гусев, Яна Чурикова

    Описание
    01 декабря 2017 года, пятница. 18: 00 МСК
    Чемпионат мира по футболу 2018 — 21-й чемпионат мира по футболу ФИФА, финальная часть которого пройдёт в России с 14 июня по 15 июля 2018 года. Россия в первый раз в своей истории станет страной-хозяйкой мирового чемпионата по футболу, кроме того, он впервые будет проведён в Восточной Европе. Проведение чемпионата запланировано на 12 стадионах в 11 городах России.
    Жеребьёвка финального турнира, определившая состав групп, состоялась 1 декабря 2017 года в Государственном Кремлёвском дворце. Распределение команд на корзины для жеребьёвки осуществлялось согласно рейтингу ФИФА от 16 октября 2017 года.
    Продолжительность: 01: 04: 19
    Качество видео: WEB-DL
    Язык озвучки: Русский
    Субтитры: отсутствуют
    Видео: AVC/H.264, 1280x720 (16: 9), ~3797 Kbps
    Аудио: AAC, 2 ch, 48 kHz, ~128 Kbps

    Общее
    Уникальный идентификатор : 223978366630298458979325433732198300883 (0xA880AA10CC64E471B83F63D69D47FCD3)
    Полное имя : F: SPORTФутболЧМ-2018(01.12.2017)_FIFA World Cup 2018. Final Draw (Full Event).mkv
    Формат : Matroska
    Версия формата : Version 4/Version 2
    Размер файла : 1, 76 Гбайт
    Продолжительность : 1 ч. 4 м.
    Общий поток : 3928 Кбит/сек
    Дата кодирования : UTC 2017-12-02 04: 08: 57
    Программа кодирования : mkvmerge v18.0.0 (\'Apricity\') 32-bit
    Библиотека кодирования : libebml v1.3.5 + libmatroska v1.4.8
    Видео
    Идентификатор : 1
    Формат : AVC
    Формат/Информация : Advanced Video Codec
    Профиль формата : High@L3.1
    Настройки формата : CABAC/4 Ref Frames
    Параметр CABAC формата : Да
    Параметр RefFrames формата : 4 кадра
    Идентификатор кодека : V_MPEG4/ISO/AVC
    Продолжительность : 1 ч. 4 м.
    Битрейт : 3797 Кбит/сек
    Ширина : 1280 пикселей
    Высота : 720 пикселей
    Соотношение сторон : 16: 9
    Режим частоты кадров : Постоянный
    Частота кадров : 25, 000 кадров/сек
    Цветовое пространство : YUV
    Субдискретизация насыщенности : 4: 2: 0
    Битовая глубина : 8 бит
    Тип развёртки : Прогрессивная
    Бит/(Пиксели*Кадры) : 0.165
    Размер потока : 1, 71 Гбайт (97%)
    Default : Да
    Forced : Нет
    Аудио
    Идентификатор : 2
    Формат : AAC
    Формат/Информация : Advanced Audio Codec
    Профиль формата : LC
    Идентификатор кодека : A_AAC-2
    Продолжительность : 1 ч. 4 м.
    Битрейт : 128 Кбит/сек
    Каналы : 2 канала
    Расположение каналов : Front: L R
    Частота : 48, 0 КГц
    Частота кадров : 46, 875 кадров/сек (1024 SPF)
    Метод сжатия : С потерями
    Размер потока : 58, 9 Мбайт (3%)
    Язык : Russian
    Default : Да
    Forced : Нет

    Скриншоты для ознакомления



    Футбол. Чемпионат Мира 2018 в Клубе
    Время раздачи: 24/7 (до 1 месяца)


    Футбол. Чемпионат Мира 2018. Финальный турнир. Жеребьевка (01.12.2017) WEB-DL [H.264/720p-LQ]
    Рейтинг →
     (голосов: 1, оценка 4/5, голосовать можно 1 раз )

    Другие торренты по теме:

  • Футбол. Чемпионат Европы 2016. Группа D. 1-й тур. Испания - Чехия (13.06.2016) HDTVRip [H.264 / 1080p-LQ] (Матч Футбол 1 HD)
  • Футбол. Чемпионат Европы 2016. Группа E. 1-й тур. Ирландия - Швеция (13.06.2016) HDTVRip [H.264 / 1080p-LQ] (Матч Футбол 1 HD)
  • Футбол. Чемпионат Европы 2016. Группа E. 1-й тур. Бельгия - Италия (13.06.2016) HDTVRip [H.264 / 1080p-LQ] (Матч Футбол 1 HD)
  • Футбол. Чемпионат Европы 2016. Группа E. 1-й тур. Бельгия - Италия (13.06.2016) HDTV [H.264 / 1080i](Футбол 1 HD)
  • Футбол. Чемпионат Мира 2014. Финал. Германия - Аргентина (2014.07.13) HDTVRip [H.264 / 720p] [hand made 50fps]
  • Футбол. Чемпионат Мира 2014. Все голы (2014) HDTVRip [H.264 / 720p] [hand made 50fps]
  • Футбол. Чемпионат Мира 2014. Матч за 1-2 место. Финал. Германия – Аргентина + Награждение (2014.07.13) HDTV [H.264 / 1080i]
  • Футбол. Чемпионат Мира 2014. Матч за 1-2 место. Финал. Германия - Аргентина (2014.07.13) WEB-DL [H.264 / 720p-LQ]


    • Комментарии (0):

      Информация

      Информация

        Посетители, находящиеся в группе Гости, не могут оставлять комментарии в данной новости.

        ↓ Меню




        ↓ Опрос

        Вы добавили сайт в закладки?
        Да
        Нет


        Top 10 за месяц (Передачи)