.
Авторизация | Регистрация
Хочешь лучшие торренты? Добавь свой email!
Добавить

Торрент скачать бесплатно

  • support: webmaster@btracker.org
» » Акт мести / Acts of Violence (2018) BDRip [576p] iPad торрент скачать бесплатно


    Акт мести / Acts of Violence (2018) BDRip [576p] iPad торрент скачать бесплатно

    Опубликовал: Админ | Дата: 14-06-2018, 05:00 | .torrent скачали: 0

    Акт мести / Acts of Violence (2018) BDRip [576p] iPadГод выпуска : 2018
    Производство : Канада
    Жанр : Боевик, криминал
    Продолжительность : 01: 32: 30
    Перевод : Многоголосый закадровый(iTunes)
    Субтитры : Нет
    Режиссер : Бретт Доноху
    Актеры : Брюс Уиллис, Коул Хаузер, Шон Эшмор, Эштон Холмс, Мелисса Болона, Шон Броснан, София Буш, Майк Эппс, Тиффани Броувер, Дженна Б. Келли
    Мировая премьера : 12 января 2018

    Описание : Чтобы спасти невесту, которая попала в лапы торговцев людьми, Роману придётся вспомнить боевые навыки и объединить усилия с бывшими сослуживцами и полицейским, расследующим подобные дела.
    Качество : BDRip 576p
    Контейнер : M4V
    Видео : H.264, 1024x432, 2.40: 1, 2 200 Kbps, 23.976 (24000/1001) fps
    Аудио 1 : Русский/Многоголосый закадровый (iTunes), AAC/2.0/128 Kbps/48.0 KHz
    Аудио 2 : Английский/Оригинальная дорожка , AAC/2.0/128 Kbps/48.0 KHz
    Код: выделить все

    Sort Name: Acts of Violence
    XID: Apple:vendor_id:2018-1043163
    contentID: 1325801397
    Copyright: © 2017 GEORGIA FILM FUND 57, LLC
    Screenwriters: Nicolas Aaron Mezzanatto
    Producers: Энтони Дж. Калли, Рэндолл Эмметт, Джордж Фурла
    Director: Бретт Доноху
    Cast: Брюс Уиллис, Коул Хаузер, Шон Эшмор, Эштон Холмс, Мелисса Болона, Шон Броснан, София Буш, Майк Эппс, Тиффани Броувер, Дженна Б. Келли
    Studio: Lionsgate Premiere
    Rating Annotation: Rated R for violence, language, throughout, sexuality/nudity and drug material.
    Rating: 5
    Long Description: Чтобы спасти невесту, которая попала в лапы торговцев людьми, Роману придётся вспомнить боевые навыки и объединить усилия с бывшими сослуживцами и полицейским, расследующим подобные дела.
    Description: Чтобы спасти невесту, которая попала в лапы торговцев людьми, Роману придётся вспомнить боевые навыки и объединить усилия с бывшими сослуживцами и полицейским, расследующим подобные дела.
    Release Date: 2018-01-01T08:00:00Z
    Genre: Action Adventure
    Artist: Brett Donowho
    Name: Acts of Violence
    Код: выделить все

    General
    Complete name : /Users/imac/HandBrake/Acts.Of.Violence.(SD).(pk).m4v
    Format : MPEG-4
    Codec ID : M4V (M4V /M4A /mp42/isom)
    File size : 1.59 GiB
    Duration : 1h 32mn
    Overall bit rate mode : Variable
    Overall bit rate : 2 461 Kbps
    Movie name : Acts of Violence
    Performer : Brett Donowho
    Director : Бретт Доноху
    Actor : Брюс Уиллис/Коул Хаузер/Шон Эшмор/Эштон Холмс/Мелисса Болона/Шон Броснан/София Буш/Майк Эппс/Тиффани Броувер/Дженна Б. Келли
    Screenplay by : Nicolas Aaron Mezzanatto
    Producer : Энтони Дж. Калли/Рэндолл Эмметт/Джордж Фурла
    Production studio : Lionsgate Premiere
    Genre : Action Adventure
    ContentType : Short Film
    Description : Чтобы спасти невесту, которая попала в лапы торговцев людьми, Роману придётся вспомнить боевые навыки и объединить усилия с бывшими сослуживцами и полицейским, расследующим подобные дела.
    Recorded date : UTC 2018-01-01 08:00:00
    Encoded date : UTC 2018-06-13 09:45:26
    Tagged date : UTC 2018-06-13 09:47:05
    Copyright : © 2017 GEORGIA FILM FUND 57, LLC
    Cover : Yes
    Rating : None
    Title/Sort : Acts of Violence
    LongDescription : Чтобы спасти невесту, которая попала в лапы торговцев людьми, Роману придётся вспомнить боевые навыки и объединить усилия с бывшими сослуживцами и полицейским, расследующим подобные дела.
    AppleStoreCatalogID : 1325801397
    Vendor : Apple:vendor_id:2018-1043163
    ContentRating : mpaa|R|400|Rated R for violence, language, throughout, sexuality/nudity and drug material.
    Video #1
    ID : 1
    Format : AVC
    Format/Info : Advanced Video Codec
    Format profile :High@L3.1
    Format settings : CABAC/9 Ref Frames
    Format settings, CABAC : Yes
    Format settings, ReFrames : 9 frames
    Codec ID : avc1
    Codec ID/Info : Advanced Video Coding
    Duration : 1h 32mn
    Source duration : 1h 32mn
    Bit rate : 2 200 Kbps
    Width : 1 024 pixels
    Height : 432 pixels
    Display aspect ratio : 2.40:1
    Frame rate mode : Variable
    Frame rate : 23.976 (24000/1001) fps
    Minimum frame rate : 23.974 fps
    Maximum frame rate : 23.981 fps
    Color space : YUV
    Chroma subsampling : 4:2:0
    Bit depth : 8 bits
    Scan type : Progressive
    Bits/(Pixel*Frame) : 0.207
    Stream size : 1.42 GiB (89%)
    Source stream size : 1.42 GiB (89%)
    Title : Main Program
    Writing library : x264 core 155 r2893 b00bcaf
    Encoding settings : cabac=1/ref=9/deblock=1:0:0/analyse=0x3:0x113/me=umh/subme=9/psy=1/psy_rd=1.00:0.00/mixed_ref=1/me_range=32/chroma_me=1/trellis=1/8x8dct=1/cqm=0/deadzone=21, 11/fast_pskip=1/chroma_qp_offset=-2/threads=13/lookahead_threads=1/sliced_threads=0/nr=0/decimate=1/interlaced=0/bluray_compat=0/constrained_intra=0/bframes=6/b_pyramid=2/b_adapt=2/b_bias=0/direct=1/weightb=1/open_gop=0/weightp=2/keyint=240/keyint_min=24/scenecut=40/intra_refresh=0/rc_lookahead=40/rc=2pass/mbtree=1/bitrate=2200/ratetol=1.0/qcomp=0.60/qpmin=0/qpmax=69/qpstep=4/cplxblur=20.0/qblur=0.5/ip_ratio=1.40/aq=1:1.00
    Language : English
    Encoded date : UTC 2018-06-13 09:45:26
    Tagged date : UTC 2018-06-13 09:45:31
    Color range : Limited
    Color primaries : BT.709
    Transfer characteristics : BT.709
    Matrix coefficients : BT.709
    Menus : 4, 5
    Video #2
    ID : 5
    Format : JPEG
    Codec ID : jpeg
    Duration : 1h 32mn
    Bit rate mode : Variable
    Bit rate : 690 bps
    Width : 640 pixels
    Height : 270 pixels
    Display aspect ratio : 2.40:1
    Frame rate mode : Variable
    Frame rate : 0.003 fps
    Minimum frame rate : 0.001 fps
    Maximum frame rate : 0.007 fps
    Color space : YUV
    Chroma subsampling : 4:2:0
    Bit depth : 8 bits
    Compression mode : Lossy
    Bits/(Pixel*Frame) : 1.331
    Stream size : 449 KiB (0%)
    Title : Chapter Images
    Language : English
    Default : No
    Encoded date : UTC 2018-06-13 09:45:38
    Tagged date : UTC 2018-06-13 09:45:38
    Menu For : 1
    ColorSpace_ICC : RGB
    Audio #1
    ID : 2
    Format : AAC
    Format/Info : Advanced Audio Codec
    Format profile : LC
    Codec ID : mp4a-40-2
    Duration : 1h 32mn
    Source duration : 1h 32mn
    Bit rate mode : Variable
    Bit rate : 126 Kbps
    Maximum bit rate : 202 Kbps
    Channel(s) : 2 channels
    Channel positions : Front: L R
    Sampling rate : 48.0 KHz
    Frame rate : 46.875 fps (1024 SPF)
    Compression mode : Lossy
    Stream size : 83.1 MiB (5%)
    Source stream size : 83.1 MiB (5%)
    Title : Russian Stereo
    Language : Russian
    Default : Yes
    Alternate group : 1
    Encoded date : UTC 2018-06-13 09:45:26
    Tagged date : UTC 2018-06-13 09:45:34
    Audio #2
    ID : 3
    Format : AAC
    Format/Info : Advanced Audio Codec
    Format profile : LC
    Codec ID : mp4a-40-2
    Duration : 1h 32mn
    Source duration : 1h 32mn
    Bit rate mode : Variable
    Bit rate : 126 Kbps
    Maximum bit rate : 201 Kbps
    Channel(s) : 2 channels
    Channel positions : Front: L R
    Sampling rate : 48.0 KHz
    Frame rate : 46.875 fps (1024 SPF)
    Compression mode : Lossy
    Stream size : 83.4 MiB (5%)
    Source stream size : 83.4 MiB (5%)
    Title : English Stereo
    Language : English
    Default : No
    Alternate group : 1
    Encoded date : UTC 2018-06-13 09:45:26
    Tagged date : UTC 2018-06-13 09:45:34
    Menu #1
    00:00:00.000 : 00:00:00.000
    00:05:06.765 : 00:05:06.765
    00:10:30.547 : 00:10:30.463
    00:14:41.464 : 00:14:41.380
    00:19:55.569 : 00:19:55.569
    00:26:09.109 : 00:26:09.067
    00:34:49.421 : 00:34:49.421
    00:38:44.197 : 00:38:44.113
    00:42:26.127 : 00:42:26.127
    00:49:25.379 : 00:49:25.296
    00:54:08.328 : 00:54:08.245
    01:00:58.029 : 01:00:57.946
    01:07:16.491 : 01:07:16.407
    01:11:36.793 : 01:11:36.709
    01:18:08.017 : 01:18:07.975
    01:20:39.126 : 01:20:39.043
    Menu #2
    ID : 4
    Codec ID : text
    Duration : 1h 32mn
    Language : English
    Encoded date : UTC 2018-06-13 09:45:34
    Tagged date : UTC 2018-06-13 09:45:34
    Bit rate mode : CBR
    Menu For : 1
    00:00:00.000 : 00:00:00.000
    00:05:06.765 : 00:05:06.765
    00:10:30.547 : 00:10:30.463
    00:14:41.464 : 00:14:41.380
    00:19:55.569 : 00:19:55.569
    00:26:09.109 : 00:26:09.067
    00:34:49.421 : 00:34:49.421
    00:38:44.197 : 00:38:44.113
    00:42:26.127 : 00:42:26.127
    00:49:25.379 : 00:49:25.296
    00:54:08.328 : 00:54:08.245
    01:00:58.029 : 01:00:57.946
    01:07:16.491 : 01:07:16.407
    01:11:36.793 : 01:11:36.709
    01:18:08.017 : 01:18:07.975
    01:20:39.126 : 01:20:39.043
    Код: выделить все

    x264 [info]: frame I:1434 Avg QP:14.65 size: 68230
    x264 [info]: frame P:32374 Avg QP:17.81 size: 22541
    x264 [info]: frame B:99261 Avg QP:19.90 size: 7041
    x264 [info]: consecutive B-frames: 3.8% 4.3% 12.3% 20.5% 17.8% 34.6% 6.8%
    x264 [info]: mb I I16..4: 10.9% 68.4% 20.8%
    x264 [info]: mb P I16..4: 2.2% 12.4% 2.6% P16..4: 35.0% 23.3% 13.2% 0.0% 0.0% skip:11.3%
    x264 [info]: mb B I16..4: 0.2% 1.2% 0.3% B16..8: 44.1% 11.1% 3.0% direct: 4.8% skip:35.4% L0:46.0% L1:45.1% BI: 8.8%
    x264 [info]: 8x8 transform intra:71.4% inter:68.0%
    x264 [info]: coded y, uvDC, uvAC intra: 82.4% 78.0% 50.0% inter: 29.2% 23.1% 2.8%
    x264 [info]: i16 v, h, dc, p: 44% 15% 8% 33%
    x264 [info]: i8 v, h, dc, ddl, ddr, vr, hd, vl, hu: 10% 7% 6% 10% 15% 15% 14% 12% 11%
    x264 [info]: i4 v, h, dc, ddl, ddr, vr, hd, vl, hu: 10% 7% 4% 9% 16% 16% 14% 12% 12%
    x264 [info]: i8c dc, h, v, p: 39% 24% 21% 16%
    x264 [info]: Weighted P-Frames: Y:3.5% UV:1.8%
    x264 [info]: ref P L0: 52.1% 12.4% 14.8% 6.1% 4.6% 3.5% 2.9% 1.7% 1.7% 0.1% 0.0%
    x264 [info]: ref B L0: 77.7% 10.4% 5.2% 2.5% 1.8% 1.4% 0.8% 0.3%
    x264 [info]: ref B L1: 95.1% 4.9%
    x264 [info]: kb/s:2200.30
    Скриншоты :


    Все одноименные релизы в Клубе


    Релиз подготовлен для просмотра наApple TV, iPad, iPhone, iPod Touch.
    Для просмотра данного релиза на компьютере с ОС Windows рекомендуется использоватьVLC media player


    Акт мести/Acts of Violence (2018) BDRip [576p] iPad
    Рейтинг →
     (голосов: 1, оценка 4/5, голосовать можно 1 раз )

    Другие торренты по теме:

  • Акт мести / Acts of Violence (2018) BDRip [720p] ATV
  • Акт мести / Acts of Violence (2018) BDRip [1080p] ATV
  • Акт мести / Акты насилия / Acts of Violence (2018) BDRip [H.264 / 1080p-LQ] [MVO] [Extended Cut]
  • Акт мести / Акты насилия / Acts of Violence (2018) BDRemux [H.264 / 1080p] [Extended Cut]
  • Акт мести / Акты насилия / Acts of Violence (2018) BDRip [H.264 / 720p] [Extended Cut]
  • Акт мести / Акты насилия / Acts of Violence (2018) BDRip [Extended Cut]


    • Комментарии (0):

      Информация

      Информация

        Посетители, находящиеся в группе Гости, не могут оставлять комментарии в данной новости.

        ↓ Меню




        ↓ Опрос

        Вы добавили сайт в закладки?
        Да
        Нет


        Top 10 за месяц (Программы)