.
Авторизация | Регистрация
Хочешь лучшие торренты? Добавь свой email!
Добавить

Торрент скачать бесплатно

  • support: webmaster@btracker.org
» » Истерия / Delirium (2018) WEB-DL [1080p] ATV торрент скачать бесплатно


    Истерия / Delirium (2018) WEB-DL [1080p] ATV торрент скачать бесплатно

    Опубликовал: Админ | Дата: 14-06-2018, 05:00 | .torrent скачали: 0

    Истерия / Delirium (2018) WEB-DL [1080p] ATVПроизводство: США/Appian Way, Blumhouse Production, GK Films
    Жанр: Ужасы, Триллер
    Режиссер: Дэннис Илиадис
    Продюсер: Джейсон Блум, Дженнифер Дэвиссон, Леонардо ДиКаприо
    Актеры: Тофер Грэйс, Дженезис Родригез, Патришия Кларксон, Каллэн Мулвей, Робин Томас, Дэйзи МакКрэкин, Коуди Салливан, Браден Фицджералд, Марти Эли Шварц, Келли Барксдэйл

    Описание

    Бывший пациент клиники для душевнобольных возвращается в роскошный особняк, доставшийся ему после смерти родителей. В этом доме прошло все его детство, и с ним связано много ярких воспоминаний. Но со временем в доме начинают происходить странные и пугающие вещи. Или это все — в его голове?

    Возраст: 18+ (зрителям, достигшим 18 лет. запрещено для детей)
    Рейтинг MPAA: R (лицам до 17 лет обязательно присутствие взрослого)
    Дата мировой премьеры: 10 мая 2018
    Дата российской премьеры: 10 мая 2018, MEGOGO Distribution
    Продолжительность: 01: 36: 06
    Качество видео: WEB-DL 1080p
    Контейнер: M4V
    Перевод: Дублированный (iTunes )
    Субтитры: Отсутствуют
    Видео: H.264, 1908x1028, 2.85: 1, 4 916 kbps, 23.976 fps
    Аудио#1 : AAC, 2.0 ch, 296 kbps, 48.0 kHz Русский | DUB iTunes |
    Аудио#2 : AC3, DD 5.1, 6.0 ch, 384 kbps, 48.0 kHz Русский | DUB iTunes |
    Код: выделить все

    Общее
    Полное имя : /Users/Delirium.2018.WEB-DL.1080p.m4v
    Формат : MPEG-4
    Идентификатор кодека : M4V (M4V /M4A /mp42/isom)
    Размер файла : 3, 76 Гбайт
    Продолжительность : 1 ч. 36 м.
    Режим общего битрейта : Переменный
    Общий поток : 5602 Кбит/сек
    Название фильма : Истерия
    Исполнитель : Дэннис Илиадис
    Режиссёр : Дэннис Илиадис
    Исполнитель : Тофер Грейс/Каллэн Мулвей/Робин Томас/Дэйзи МакКрэкин/Коуди Салливан/Браден Фицджералд/Марти Эли Шварц
    Продюсер : Джейсон Блум/Дженнифер Дэвиссон/Leonardo DiCaprio
    Жанр : Триллеры
    Тип содержимого : Short Film
    Дата записи : UTC 2018-05-10 07:00:00
    Дата кодирования : UTC 2018-06-13 04:22:10
    Дата пометки : UTC 2018-06-13 05:44:15
    Обложка : Yes
    LongDescription : Бывший пациент клиники для душевнобольных возвращается в роскошный особняк, доставшийся ему после смерти родителей. В этом доме прошло все его детство, и с ним связано много ярких воспоминаний. Но со временем в доме начинают происходить странные и пугающие вещи. Или это все — в его голове?
    AppleStoreCountry : Russia
    AppleStoreCatalogID : 1392993065
    ContentRating : ru-movie|18+|400|
    Видео #1
    Идентификатор : 1
    Формат : AVC
    Формат/Информация : Advanced Video Codec
    Профиль формата : High@L4
    Настройки формата : CABAC/4 Ref Frames
    Параметр CABAC формата : Да
    Параметр ReFrames формата : 4 кадра
    Идентификатор кодека : avc1
    Идентификатор кодека/Информация : Advanced Video Coding
    Продолжительность : 1 ч. 36 м.
    Битрейт : 4916 Кбит/сек
    Ширина : 1908 пикселей
    Высота : 1028 пикселей
    Соотношение сторон : 1, 85:1
    Частота кадров : 23, 976 кадра/сек
    Цветовое пространство : YUV
    Субдискретизация насыщенности : 4:2:0
    Битовая глубина : 8 бит
    Тип развёртки : Прогрессивная
    Бит/(Пиксели*Кадры) : 0.105
    Размер потока : 3, 30 Гбайт (88%)
    Язык : English
    Дата кодирования : UTC 2018-06-13 04:22:10
    Дата пометки : UTC 2018-06-13 05:43:01
    Цветовой диапазон : Limited
    Основные цвета : BT.709
    Характеристики трансфера : BT.709
    Коэффициенты матрицы : BT.709
    Menus : 4, 5
    Видео #2
    Идентификатор : 5
    Формат : JPEG
    Идентификатор кодека : jpeg
    Продолжительность : 1 ч. 36 м.
    Вид битрейта : Переменный
    Битрейт : 555 бит/сек
    Ширина : 640 пикселей
    Высота : 344 пикселя
    Соотношение сторон : 1, 85:1
    Режим частоты кадров : Переменный
    Частота кадров : 0, 002 кадр/сек
    Минимальная частота кадров : 0, 001 кадр/сек
    Максимальная частота кадров : 0, 004 кадр/сек
    Цветовое пространство : YUV
    Субдискретизация насыщенности : 4:2:0
    Битовая глубина : 8 бит
    Метод сжатия : С потерями
    Бит/(Пиксели*Кадры) : 1.260
    Размер потока : 373 Кбайт (0%)
    Язык : English
    Default : Нет
    Дата кодирования : UTC 2018-06-13 05:44:11
    Дата пометки : UTC 2018-06-13 05:44:13
    Menu For : 1
    ColorSpace_ICC : RGB
    Аудио #1
    Идентификатор : 2
    Формат : AAC
    Формат/Информация : Advanced Audio Codec
    Профиль формата : LC
    Идентификатор кодека : mp4a-40-2
    Продолжительность : 1 ч. 36 м.
    Вид битрейта : Переменный
    Битрейт : 296 Кбит/сек
    Максимальный битрейт : 490 Кбит/сек
    Каналы : 2 канала
    Расположение каналов : Front: L R
    Частота : 48, 0 КГц
    Частота кадров : 46, 875 кадров/сек (1024 SPF)
    Метод сжатия : С потерями
    Размер потока : 203 Мбайт (5%)
    Язык : Russian
    Default : Да
    Alternate group : 1
    Дата кодирования : UTC 2018-06-13 04:22:10
    Дата пометки : UTC 2018-06-13 05:43:01
    Fallback From : 3
    tagc : public.main-program-content
    Аудио #2
    Идентификатор : 3
    Формат : AC-3
    Формат/Информация : Audio Coding 3
    Идентификатор кодека : ac-3
    Продолжительность : 1 ч. 36 м.
    Вид битрейта : Постоянный
    Битрейт : 384 Кбит/сек
    Каналы : 6 каналов
    Расположение каналов : Front: L C R, Side: L R, LFE
    Частота : 48, 0 КГц
    Частота кадров : 31, 250 кадров/сек (1536 SPF)
    Битовая глубина : 16 бит
    Метод сжатия : С потерями
    Размер потока : 264 Мбайт (7%)
    Язык : Russian
    Service kind : Complete Main
    Default : Inherited From: 2
    Alternate group : 1
    Дата кодирования : UTC 2018-06-13 04:22:10
    Дата пометки : UTC 2018-06-13 05:43:01
    Fallback To : 2
    tagc : public.main-program-content
    Меню
    Идентификатор : 4
    Идентификатор кодека : text
    Продолжительность : 1 ч. 36 м.
    Язык : English
    Дата кодирования : UTC 2018-06-13 05:43:01
    Дата пометки : UTC 2018-06-13 05:43:01
    Menu For : 1
    00:00:00.000 : 1
    00:03:43.000 : 2
    00:13:45.000 : 3
    00:24:11.000 : 4
    00:34:01.000 : 5
    00:43:49.000 : 6
    00:55:05.000 : 7
    01:04:02.000 : 8
    01:13:01.000 : 9
    01:19:19.000 : 10
    01:30:11.000 : 11
    Вид битрейта : VBR



    Истерия/Delirium (2018) WEB-DL [1080p] ATV
    Рейтинг →
     (голосов: 1, оценка 5/5, голосовать можно 1 раз )

    Другие торренты по теме:

  • Истерия / Delirium (2018) WEB-DLRip
  • Истерия / Delirium (2018) WEB-DL [H.264 / 1080p-LQ]


    • Комментарии (0):

      Информация

      Информация

        Посетители, находящиеся в группе Гости, не могут оставлять комментарии в данной новости.

        ↓ Меню




        ↓ Опрос

        Вы добавили сайт в закладки?
        Да
        Нет


        Top 10 за месяц (Программы)