.
Авторизация | Регистрация
Хочешь лучшие торренты? Добавь свой email!
Добавить

Торрент скачать бесплатно

  • support: webmaster@btracker.org
» » Убрать перископ / Down Periscope (1996) WEB-DL [1080p] ATV торрент скачать бесплатно


    Убрать перископ / Down Periscope (1996) WEB-DL [1080p] ATV торрент скачать бесплатно

    Опубликовал: Админ | Дата: 1-06-2018, 05:00 | .torrent скачали: 0

    Убрать перископ / Down Periscope (1996) WEB-DL [1080p] ATVПроизводство: США/20th Century Fox Film Corporation
    Жанр: Комедия
    Режиссер: Дэвид С. Уорд
    Продюсер: Роберт Лоуренс, Джек Камминс, Стэнли Уилсон
    Актеры: Келси Грэммер, Лорен Холли, Роб Шнайдер, Гарри Дин Стэнтон, Брюс Дерн, Уильям Х. Мэйси, Кен Хадсон Кэмпбелл, Тоби Хасс, Дуэйн Мартин, Джонатан Пеннер

    Описание

    Вместо долгожданной атомной подводной лодки капитан Том Додж получает в свое распоряжение допотопную дизельную развалину. Судя по внешнему виду, единственное, на что она способна — это последнее и очень быстрое погружение. Однако его это не смущает, ведь он самый веселый и бесшабашный капитан флота США, настоящий морской волк с татуировкой на интимном месте.
    Под стать ему подобрался и экипаж. Более эксцентричных и нелепых матросов в природе не существует. А когда в качестве эксперимента на лодку назначается женщина-офицер, и без того неспокойные моряки просто сходят с ума…

    Возраст: 0+ (для любой зрительской аудитории)
    Рейтинг MPAA: PG-13 (детям до 13 лет просмотр нежелателен)
    Дата мировой премьеры: 1 марта 1996
    Дата российской премьеры: 12 июня 2008, Двадцатый Век Фокс СНГ
    Продолжительность: 01: 32: 47
    Качество видео: WEB-DL 1080p
    Контейнер: M4V
    Перевод: Профессиональный (двухголосый, закадровый), Авторский (одноголосый, закадровый)
    Субтитры: Русские (вшитые, отключаемые), Английские (вшитые, отключаемые)
    Видео: H.264, 1920x1040, 1, 85: 1, 10 400 kbps, 23.976 fps
    Аудио#1 : AAC, 2.0 ch, 296 kbps, 48.0 kHz Русский | DVO |
    Аудио#2 : AAC, 2.0 ch, 296 kbps, 48.0 kHz Русский | AVO П. Санаев |
    Аудио#3 : AAC, 2.0 ch, 296 kbps, 48.0 kHz Русский | AVO Ю. Живов |
    Аудио#4 : AAC, 2.0 ch, 297 kbps, 48.0 kHz Украинский | DVO Новий Канал |
    Аудио#5 : AAC, 2.0 ch, 296 kbps, 48.0 kHz English | Original |
    Аудио#6 : AC3, DD 5.1, 6.0 ch, 384 kbps, 48.0 kHz Русский | DVO |
    Аудио#7 : AC3, DD 5.1, 6.0 ch, 384 kbps, 48.0 kHz Русский | AVO П. Санаев |
    Аудио#8 : AC3, DD 5.1, 6.0 ch, 384 kbps, 48.0 kHz English| Original |
    Код: выделить все

    Общее
    Полное имя : /Users/Down.Periscope.1996.WEB-DL.1080p.m4v
    Формат : MPEG-4
    Идентификатор кодека : M4V (M4V /M4A /mp42/isom)
    Размер файла : 8, 48 Гбайт
    Продолжительность : 1 ч. 32 м.
    Режим общего битрейта : Переменный
    Общий поток : 13, 1 Мбит/сек
    Название фильма : Убрать перископ
    Исполнитель : David S. Ward
    Режиссёр : David S. Ward
    Исполнитель : Kelsey Grammer/Lauren Holly/Rob Schneider/Harry Dean Stanton/Bruce Dern/William H. Macy/Rip Torn/Ken Hudson Campbell/Toby Huss/Duane Martin/Bradford Tatum/Harland Williams/James Martin Jr./Jonathan Penner/Jordan Marder/James Harper/Matt Landers/Joseph Latimore/Patton Oswalt/Joe Soto/John Shepherd/Pierrino Mascarino/Dennis Fimple/Ancel Cook/Rudy Hornish/Tommy Terrell/Elliot Easton/Michael Connors/Paul Tranghese/Mitchell R. Danton/Jackson Sleet/Annie Talbot/Bob Dini/Andrew Christian English/Jamie James/Joseph Keawkalaya/Todd Odom/James Eric Anzalone/Brandon Ladd Burkey/Bruce Holman/Michael Koster/Felipe Rose/Timothy D. Rossi/Theodore Carl Soderberg/Gary Vinant-Tang/Gabrielle Wagner/Tirralan Watkins
    Сценарист : Hugh Wilson/Andrew Kurtzman/Eliot Wald
    Продюсер : Robert Lawrence
    Исполнительный продюсер : Jack Cummins
    Студия-производитель : 20th Century Fox
    Жанр : комедия
    Тип содержимого : Short Film
    Дата записи : UTC 1996-03-01 00:00:00
    Дата кодирования : UTC 2018-05-30 16:50:45
    Дата пометки : UTC 2018-05-30 18:35:22
    Обложка : Yes
    LongDescription : Вместо долгожданной атомной подводной лодки капитан Джон Додж получает в свое распоряжение допотопную дизельную развалину. Судя по внешнему виду, единственное, на что она способна – это последнее и очень быстрое погружение. Однако его это не смущает, ведь он самый веселый и бесшабашный капитан флота США, настоящий морской волк с татуировкой на интимном месте. Под стать ему подобрался и экипаж. Более эксцентричных и нелепых матросов в природе не существует. А когда, в качестве эксперимента, на лодку назначается женщина–офицер, и без того неспокойные моряки просто сходят с ума.
    ContentRating : mpaa|PG-13|300|
    Видео
    Идентификатор : 1
    Формат : AVC
    Формат/Информация : Advanced Video Codec
    Профиль формата : High@L4
    Настройки формата : CABAC/4 Ref Frames
    Параметр CABAC формата : Да
    Параметр ReFrames формата : 4 кадра
    Идентификатор кодека : avc1
    Идентификатор кодека/Информация : Advanced Video Coding
    Продолжительность : 1 ч. 32 м.
    Вид битрейта : Переменный
    Битрейт : 10, 4 Мбит/сек
    Максимальный битрейт : 15, 0 Мбит/сек
    Ширина : 1920 пикселей
    Высота : 1040 пикселей
    Соотношение сторон : 1, 85:1
    Соотношение сторон в оригинале : 1, 85:1
    Режим частоты кадров : Переменный
    Частота кадров : 23, 976 (24000/1001) кадра/сек
    Минимальная частота кадров : 23, 810 кадра/сек
    Максимальная частота кадров : 24, 390 кадра/сек
    Цветовое пространство : YUV
    Субдискретизация насыщенности : 4:2:0
    Битовая глубина : 8 бит
    Тип развёртки : Прогрессивная
    Бит/(Пиксели*Кадры) : 0.218
    Размер потока : 6, 77 Гбайт (80%)
    Библиотека кодирования : x264 core 148 r2623 d5b2374
    Настройки программы : cabac=1/ref=4/deblock=1:-1:-1/analyse=0x3:0x133/me=umh/subme=9/psy=1/psy_rd=1.00:0.15/mixed_ref=1/me_range=24/chroma_me=1/trellis=2/8x8dct=1/cqm=0/deadzone=21, 11/fast_pskip=1/chroma_qp_offset=-3/threads=32/lookahead_threads=5/sliced_threads=0/nr=150/decimate=1/interlaced=0/bluray_compat=0/constrained_intra=0/bframes=8/b_pyramid=2/b_adapt=2/b_bias=0/direct=3/weightb=1/open_gop=0/weightp=2/keyint=120/keyint_min=61/scenecut=0/intra_refresh=0/rc_lookahead=120/rc=crf/mbtree=1/crf=18.0/qcomp=0.60/qpmin=0/qpmax=69/qpstep=4/vbv_maxrate=15000/vbv_bufsize=31250/crf_max=0.0/nal_hrd=vbr/filler=0/ip_ratio=1.40/aq=3:1.00
    Язык : English
    Дата кодирования : UTC 2018-05-30 16:50:45
    Дата пометки : UTC 2018-05-30 18:35:20
    Цветовой диапазон : Limited
    Основные цвета : BT.709
    Характеристики трансфера : BT.709
    Коэффициенты матрицы : BT.709
    Аудио #1
    Идентификатор : 2
    Формат : AAC
    Формат/Информация : Advanced Audio Codec
    Профиль формата : LC
    Идентификатор кодека : mp4a-40-2
    Продолжительность : 1 ч. 32 м.
    Продолжительность оригинала : 1 ч. 32 м.
    Вид битрейта : Переменный
    Номинальный битрейт : 296 Кбит/сек
    Максимальный битрейт : 473 Кбит/сек
    Каналы : 2 канала
    Расположение каналов : Front: L R
    Частота : 48, 0 КГц
    Частота кадров : 46, 875 кадров/сек (1024 SPF)
    Метод сжатия : С потерями
    Размер потока оригинала : 196 Мбайт (2%)
    Язык : Russian
    Default : Да
    Alternate group : 1
    Дата кодирования : UTC 2018-05-30 16:50:45
    Дата пометки : UTC 2018-05-30 18:35:20
    Fallback From : 8
    tagc : public.auxiliary-content
    Аудио #2
    Идентификатор : 3
    Формат : AAC
    Формат/Информация : Advanced Audio Codec
    Профиль формата : LC
    Идентификатор кодека : mp4a-40-2
    Продолжительность : 1 ч. 32 м.
    Продолжительность оригинала : 1 ч. 32 м.
    Вид битрейта : Переменный
    Номинальный битрейт : 296 Кбит/сек
    Максимальный битрейт : 493 Кбит/сек
    Каналы : 2 канала
    Расположение каналов : Front: L R
    Частота : 48, 0 КГц
    Частота кадров : 46, 875 кадров/сек (1024 SPF)
    Метод сжатия : С потерями
    Размер потока оригинала : 196 Мбайт (2%)
    Язык : Russian
    Default : Нет
    Alternate group : 1
    Дата кодирования : UTC 2018-05-30 16:50:45
    Дата пометки : UTC 2018-05-30 18:35:21
    Fallback From : 7
    tagc : public.main-program-content
    Аудио #3
    Идентификатор : 4
    Формат : AAC
    Формат/Информация : Advanced Audio Codec
    Профиль формата : LC
    Идентификатор кодека : mp4a-40-2
    Продолжительность : 1 ч. 32 м.
    Продолжительность оригинала : 1 ч. 32 м.
    Вид битрейта : Переменный
    Номинальный битрейт : 296 Кбит/сек
    Максимальный битрейт : 421 Кбит/сек
    Каналы : 2 канала
    Расположение каналов : Front: L R
    Частота : 48, 0 КГц
    Частота кадров : 46, 875 кадров/сек (1024 SPF)
    Метод сжатия : С потерями
    Размер потока оригинала : 197 Мбайт (2%)
    Язык : Russian
    Default : Нет
    Alternate group : 1
    Дата кодирования : UTC 2018-05-30 16:50:45
    Дата пометки : UTC 2018-05-30 18:35:21
    tagc : public.auxiliary-content
    Аудио #4
    Идентификатор : 5
    Формат : AAC
    Формат/Информация : Advanced Audio Codec
    Профиль формата : LC
    Идентификатор кодека : mp4a-40-2
    Продолжительность : 1 ч. 32 м.
    Вид битрейта : Переменный
    Битрейт : 297 Кбит/сек
    Максимальный битрейт : 497 Кбит/сек
    Каналы : 2 канала
    Расположение каналов : Front: L R
    Частота : 48, 0 КГц
    Частота кадров : 46, 875 кадров/сек (1024 SPF)
    Метод сжатия : С потерями
    Размер потока : 197 Мбайт (2%)
    Язык : Ukrainian
    Default : Нет
    Alternate group : 1
    Дата кодирования : UTC 2018-05-30 16:50:45
    Дата пометки : UTC 2018-05-30 18:35:20
    tagc : public.main-program-content
    Аудио #5
    Идентификатор : 6
    Формат : AAC
    Формат/Информация : Advanced Audio Codec
    Профиль формата : LC
    Идентификатор кодека : mp4a-40-2
    Продолжительность : 1 ч. 32 м.
    Продолжительность оригинала : 1 ч. 32 м.
    Вид битрейта : Переменный
    Номинальный битрейт : 296 Кбит/сек
    Максимальный битрейт : 497 Кбит/сек
    Каналы : 2 канала
    Расположение каналов : Front: L R
    Частота : 48, 0 КГц
    Частота кадров : 46, 875 кадров/сек (1024 SPF)
    Метод сжатия : С потерями
    Размер потока оригинала : 196 Мбайт (2%)
    Язык : English
    Default : Нет
    Alternate group : 1
    Дата кодирования : UTC 2018-05-30 16:50:45
    Дата пометки : UTC 2018-05-30 18:35:21
    Fallback From : 9
    tagc : public.main-program-content
    Аудио #6
    Идентификатор : 7
    Формат : AC-3
    Формат/Информация : Audio Coding 3
    Идентификатор кодека : ac-3
    Продолжительность : 1 ч. 32 м.
    Продолжительность оригинала : 1 ч. 32 м.
    Вид битрейта : Постоянный
    Битрейт : 384 Кбит/сек
    Каналы : 6 каналов
    Расположение каналов : Front: L C R, Side: L R, LFE
    Частота : 48, 0 КГц
    Частота кадров : 31, 250 кадров/сек (1536 SPF)
    Битовая глубина : 16 бит
    Метод сжатия : С потерями
    Размер потока : 255 Мбайт (3%)
    Размер потока оригинала : 255 Мбайт (3%)
    Язык : Russian
    Service kind : Complete Main
    Default : Нет
    Alternate group : 1
    Дата кодирования : UTC 2018-05-30 16:50:45
    Дата пометки : UTC 2018-05-30 18:35:20
    Fallback To : 3
    tagc : public.main-program-content
    Аудио #7
    Идентификатор : 8
    Формат : AC-3
    Формат/Информация : Audio Coding 3
    Идентификатор кодека : ac-3
    Продолжительность : 1 ч. 32 м.
    Продолжительность оригинала : 1 ч. 32 м.
    Вид битрейта : Постоянный
    Битрейт : 384 Кбит/сек
    Каналы : 6 каналов
    Расположение каналов : Front: L C R, Side: L R, LFE
    Частота : 48, 0 КГц
    Частота кадров : 31, 250 кадров/сек (1536 SPF)
    Битовая глубина : 16 бит
    Метод сжатия : С потерями
    Размер потока : 254 Мбайт (3%)
    Размер потока оригинала : 254 Мбайт (3%)
    Язык : Russian
    Service kind : Complete Main
    Default : Inherited From: 2
    Alternate group : 1
    Дата кодирования : UTC 2018-05-30 16:50:45
    Дата пометки : UTC 2018-05-30 18:35:20
    Fallback To : 2
    tagc : public.auxiliary-content
    Аудио #8
    Идентификатор : 9
    Формат : AC-3
    Формат/Информация : Audio Coding 3
    Идентификатор кодека : ac-3
    Продолжительность : 1 ч. 32 м.
    Продолжительность оригинала : 1 ч. 32 м.
    Вид битрейта : Постоянный
    Битрейт : 384 Кбит/сек
    Каналы : 6 каналов
    Расположение каналов : Front: L C R, Side: L R, LFE
    Частота : 48, 0 КГц
    Частота кадров : 31, 250 кадров/сек (1536 SPF)
    Битовая глубина : 16 бит
    Метод сжатия : С потерями
    Размер потока : 255 Мбайт (3%)
    Размер потока оригинала : 255 Мбайт (3%)
    Язык : English
    Service kind : Complete Main
    Default : Нет
    Alternate group : 1
    Дата кодирования : UTC 2018-05-30 16:50:45
    Дата пометки : UTC 2018-05-30 18:35:20
    Fallback To : 6
    tagc : public.main-program-content
    Текст #1
    Идентификатор : 10
    Формат : Timed Text
    Режим смешивания : sbtl
    Идентификатор кодека : tx3g
    Продолжительность : 1 ч. 27 м.
    Вид битрейта : Переменный
    Битрейт : 109 бит/сек
    Размер потока : 70, 2 Кбайт (0%)
    Язык : Russian
    Default : Да
    Forced : Нет
    Alternate group : 2
    Дата кодирования : UTC 2018-05-30 16:50:45
    Дата пометки : UTC 2018-05-30 18:35:21
    tagc : public.main-program-content
    Текст #2
    Идентификатор : 11
    Формат : Timed Text
    Режим смешивания : sbtl
    Идентификатор кодека : tx3g
    Продолжительность : 1 ч. 27 м.
    Вид битрейта : Переменный
    Битрейт : 68 бит/сек
    Размер потока : 43, 4 Кбайт (0%)
    Язык : English
    Default : Нет
    Forced : Нет
    Alternate group : 2
    Дата кодирования : UTC 2018-05-30 16:50:45
    Дата пометки : UTC 2018-05-30 18:35:21
    tagc : public.main-program-content



    Убрать перископ/Down Periscope (1996) WEB-DL [1080p] ATV
    Рейтинг →
     (голосов: 1, оценка 5/5, голосовать можно 1 раз )

    Другие торренты по теме:

  • Убрать перископ / Down Periscope (1996) WEB-DL [H.264 / 720p-LQ]
  • Убрать перископ / Down Periscope (1996) WEB-DLRip [H.264 / 1080p]
  • Убрать перископ / Down Periscope (1996) WEB-DLRip [H.264] [MP4|1024x552]
  • Убрать перископ / Down Periscope (1996) WEB-DLRip [H.264 / 720p]


    • Комментарии (0):

      Информация

      Информация

        Посетители, находящиеся в группе Гости, не могут оставлять комментарии в данной новости.

        ↓ Меню




        ↓ Опрос

        Вы добавили сайт в закладки?
        Да
        Нет


        Top 10 за месяц (Программы)