.
Авторизация | Регистрация
Хочешь лучшие торренты? Добавь свой email!
Добавить

Торрент скачать бесплатно

  • support: webmaster@btracker.org
» » Танки (2018) WEB-DL [1080p] ATV торрент скачать бесплатно


    Танки (2018) WEB-DL [1080p] ATV торрент скачать бесплатно

    Опубликовал: Админ | Дата: 1-06-2018, 05:00 | .torrent скачали: 0

    Танки (2018) WEB-DL [1080p] ATVПроизводство: Россия/МЕДИА-ТРЕСТ
    Жанр: Приключения, История, Военный
    Режиссер: Ким Дружинин
    Продюсер: Дмитрий Щербанов, Олег Антипов
    Актеры: Андрей Мерзликин, Аглая Тарасова, Александр Тютин, Сергей Стукалов, Антон Филипенко, Алексей Овсянников, Сергей Четвертков, Николай Горшков, Дмитрий Поднозов, Юрий Ицков

    Описание

    На пороге войны с фашистской Германией инженер Михаил Кошкин разрабатывает прототип нового инновационного танка Т-34. Чтобы доказать уникальность боевой машины, Кошкин и его команда отправляются в Москву на танках своим ходом. Но вскоре пробег превращается в непредсказуемую гонку, где бездорожье лишь меньшее из зол… Пройдя череду опасных приключений и благодаря безупречным техническим и боевым качествам новых танков, героям удается одержать верх над преследователями и доказать превосходство Т-34.

    Возраст: 12+ (зрителям, достигшим 12 лет)
    Дата российской премьеры: 26 апреля 2018, Двадцатый Век Фокс СНГ
    Продолжительность: 01: 33: 13
    Качество видео: WEB-DL 1080p
    Контейнер: M4V
    Перевод: Не требуется, Русский (iTunes )
    Субтитры: Отсутствуют
    Видео: H.264, 1908x848, 2.25: 1, 4 512 kbps, 23.976 fps
    Аудио#1 : AAC, 2.0 ch, 288 kbps, 48.0 kHz Русский | iTunes |
    Аудио#2 : AC3, DD 5.1, 6.0 ch, 384 kbps, 48.0 kHz Русский | iTunes |
    Код: выделить все

    Общее
    Полное имя : /Users/Tanki.2018.WEB-DL.1080p.m4v
    Формат : MPEG-4
    Идентификатор кодека : M4V (M4V /M4A /mp42/isom)
    Размер файла : 3, 38 Гбайт
    Продолжительность : 1 ч. 33 м.
    Режим общего битрейта : Переменный
    Общий поток : 5196 Кбит/сек
    Название фильма : Танки
    Исполнитель : Ким Дружинин
    Режиссёр : Ким Дружинин
    Исполнитель : Андрей Мерзликин/Аглая Тарасова/Александр Тютин/Антон Филипенко/Алексей Овсянников/Мераб Майсурадзе/Игорь Грабузов
    Продюсер : Дмитрий Щербанов/Олег Антипов
    Жанр : Боевики и приключения
    Тип содержимого : Short Film
    Дата записи : UTC 2018-05-17 07:00:00
    Дата кодирования : UTC 2018-05-30 20:26:14
    Дата пометки : UTC 2018-05-30 20:40:41
    Обложка : Yes
    LongDescription : На пороге войны с фашистской Германией инженер Михаил Кошкин разрабатывает прототип нового инновационного танка Т-34. Чтобы доказать уникальность боевой машины, Кошкин и его команда отправляются в Москву на танках своим ходом. Но вскоре пробег превращается в непредсказуемую гонку, где бездорожье лишь меньшее из зол… Пройдя череду опасных приключений и благодаря безупречным техническим и боевым качествам новых танков, героям удается одержать верх над преследователями и доказать превосходство Т-34.
    AppleStoreCountry : Russia
    AppleStoreCatalogID : 1386647529
    ContentRating : ru-movie|12+|200|
    Видео #1
    Идентификатор : 1
    Формат : AVC
    Формат/Информация : Advanced Video Codec
    Профиль формата : High@L4
    Настройки формата : CABAC/5 Ref Frames
    Параметр CABAC формата : Да
    Параметр ReFrames формата : 5 кадров
    Идентификатор кодека : avc1
    Идентификатор кодека/Информация : Advanced Video Coding
    Продолжительность : 1 ч. 33 м.
    Битрейт : 4512 Кбит/сек
    Ширина : 1908 пикселей
    Высота : 848 пикселей
    Соотношение сторон : 2, 25:1
    Режим частоты кадров : Переменный
    Частота кадров : 23, 976 кадра/сек
    Минимальная частота кадров : 23, 810 кадра/сек
    Максимальная частота кадров : 24, 390 кадра/сек
    Цветовое пространство : YUV
    Субдискретизация насыщенности : 4:2:0
    Битовая глубина : 8 бит
    Тип развёртки : Прогрессивная
    Бит/(Пиксели*Кадры) : 0.116
    Размер потока : 2, 94 Гбайт (87%)
    Язык : English
    Дата кодирования : UTC 2018-05-30 20:26:14
    Дата пометки : UTC 2018-05-30 20:40:34
    Цветовой диапазон : Limited
    Основные цвета : BT.709
    Характеристики трансфера : BT.709
    Коэффициенты матрицы : BT.709
    Menus : 4, 5
    Видео #2
    Идентификатор : 5
    Формат : JPEG
    Идентификатор кодека : jpeg
    Продолжительность : 1 ч. 33 м.
    Вид битрейта : Переменный
    Битрейт : 513 бит/сек
    Ширина : 640 пикселей
    Высота : 284 пикселя
    Соотношение сторон : 2, 25:1
    Режим частоты кадров : Переменный
    Частота кадров : 0, 002 кадр/сек
    Минимальная частота кадров : 0, 001 кадр/сек
    Максимальная частота кадров : 0, 005 кадр/сек
    Цветовое пространство : YUV
    Субдискретизация насыщенности : 4:2:0
    Битовая глубина : 8 бит
    Метод сжатия : С потерями
    Бит/(Пиксели*Кадры) : 1.411
    Размер потока : 313 Кбайт (0%)
    Язык : English
    Default : Нет
    Дата кодирования : UTC 2018-05-30 20:40:40
    Дата пометки : UTC 2018-05-30 20:40:41
    Menu For : 1
    ColorSpace_ICC : RGB
    Аудио #1
    Идентификатор : 2
    Формат : AAC
    Формат/Информация : Advanced Audio Codec
    Профиль формата : LC
    Идентификатор кодека : mp4a-40-2
    Продолжительность : 1 ч. 33 м.
    Вид битрейта : Переменный
    Битрейт : 288 Кбит/сек
    Максимальный битрейт : 499 Кбит/сек
    Каналы : 2 канала
    Расположение каналов : Front: L R
    Частота : 48, 0 КГц
    Частота кадров : 46, 875 кадров/сек (1024 SPF)
    Метод сжатия : С потерями
    Размер потока : 196 Мбайт (6%)
    Язык : Russian
    Default : Да
    Alternate group : 1
    Дата кодирования : UTC 2018-05-30 20:26:14
    Дата пометки : UTC 2018-05-30 20:40:34
    Fallback From : 3
    tagc : public.main-program-content
    Аудио #2
    Идентификатор : 3
    Формат : AC-3
    Формат/Информация : Audio Coding 3
    Идентификатор кодека : ac-3
    Продолжительность : 1 ч. 33 м.
    Вид битрейта : Постоянный
    Битрейт : 384 Кбит/сек
    Каналы : 6 каналов
    Расположение каналов : Front: L C R, Side: L R, LFE
    Частота : 48, 0 КГц
    Частота кадров : 31, 250 кадров/сек (1536 SPF)
    Битовая глубина : 16 бит
    Метод сжатия : С потерями
    Размер потока : 256 Мбайт (7%)
    Язык : Russian
    Service kind : Complete Main
    Default : Inherited From: 2
    Alternate group : 1
    Дата кодирования : UTC 2018-05-30 20:26:14
    Дата пометки : UTC 2018-05-30 20:40:34
    Fallback To : 2
    tagc : public.main-program-content
    Меню
    Идентификатор : 4
    Идентификатор кодека : text
    Продолжительность : 1 ч. 33 м.
    Язык : English
    Дата кодирования : UTC 2018-05-30 20:40:34
    Дата пометки : UTC 2018-05-30 20:40:34
    Menu For : 1
    00:00:00.000 : 1
    00:03:02.000 : 2
    00:13:51.000 : 3
    00:25:19.000 : 4
    00:36:29.000 : 5
    00:46:24.000 : 6
    00:53:51.000 : 7
    01:04:12.000 : 8
    01:14:09.000 : 9
    01:29:33.000 : 10
    Вид битрейта : VBR



    Танки (2018) WEB-DL [1080p] ATV
    Рейтинг →
     (голосов: 1, оценка 3/5, голосовать можно 1 раз )

    Другие торренты по теме:

  • Танки (2018) WEB-DL [H.264 / 1080p-LQ]


    • Комментарии (0):

      Информация

      Информация

        Посетители, находящиеся в группе Гости, не могут оставлять комментарии в данной новости.

        ↓ Меню




        ↓ Опрос

        Вы добавили сайт в закладки?
        Да
        Нет


        Top 10 за месяц (Программы)