.
Авторизация | Регистрация
Хочешь лучшие торренты? Добавь свой email!
Добавить

Торрент скачать бесплатно

  • support: webmaster@btracker.org
» » Chasers / Конвоиры (1994) WEB-DL [1080p] ATV торрент скачать бесплатно


    Chasers / Конвоиры (1994) WEB-DL [1080p] ATV торрент скачать бесплатно

    Опубликовал: Админ | Дата: 1-06-2018, 05:00 | .torrent скачали: 0

    Chasers / Конвоиры (1994) WEB-DL [1080p] ATVПроизводство: США/Morgan Creek Productions
    Жанр: Комедия, Приключения
    Режиссер: Деннис Хоппер
    Продюсер: Джеймс Дж. Робинсон, Гари Барбер, Джо Бэттир
    Актеры: Том Беренджер, Эрика Элениак, Уильям МакНамара, Гэри Бьюзи, Фредерик Форрест, Криспин Гловер, Марилу Хеннер, Дин Стокуэлл, Грэнд Л. Буш, Мэттью Глэйв, Битти Шрэм, Сеймур Кэссел, Деннис Хоппер

    Описание

    Офицер берегового патруля военно-морских сил Рок Рилли думал, что его уже ничем не удивишь. Его свежеиспеченному напарнику Эдди Дивейну тоже все осточертело, и он подумывает об увольнении из армии.
    Но удивляться им все-таки пришлось, они почувствовали себя настоящими юнцами, когда повстречались с лейтенантом ВМС Тони Джонсон, красивой и вздорной особой, которая и была тем заключенным, кого они должны были доставить на базу.
    Доставка должна проходить согласно заведенному порядку. Однако Тони намерена во что бы то ни стало вырваться на свободу…

    Возраст: 16+ (16+, зрителям достигшим 16 лет)
    Рейтинг MPAA R: 18+ (лицам до 17 лет обязательно присутствие взрослого)
    Дата мировой премьеры: 22 апреля 1994
    Продолжительность: 01: 41: 21
    Качество видео: WEB-DL 1080p
    Контейнер: M4V
    Перевод: Дублированный, Профессиональный (двухголосый, закадровый), Авторский (одноголосый, закадровый)
    Субтитры: Английские (вшитые, отключаемые)
    Видео: H.264, 1916х1076, 16: 9, 5 160 kbps, 23.976 fps
    Аудио#1 : AAC, 2.0 ch, 306 kbps, 48.0 kHz Русский | DUB |
    Аудио#2 : AAC, 2.0 ch, 288 kbps, 48.0 kHz Русский | DVO THT |
    Аудио#3 : AAC, 2.0 ch, 295 kbps, 48.0 kHz Русский | AVO А. Михалев |
    Аудио#4 : AAC, 2.0 ch, 218 kbps, 48.0 kHz Русский | AVO А. Пронин |
    Аудио#5 : AAC, 2.0 ch, 295 kbps, 48.0 kHz English | Original |
    Аудио#6 : AC3, DD 5.1, 6.0 ch, 384 kbps, 48.0 kHz Русский | AVO А. Михалев |
    Аудио#7 : AC3, DD 5.1, 6.0 ch, 384 kbps, 48.0 kHz English| Original |
    Код: выделить все

    Общее
    Полное имя : Chasers.1994.WEB-DL.1080p.m4v
    Формат : MPEG-4
    Идентификатор кодека : M4V (M4V /M4A /mp42/isom)
    Размер файла : 5, 20 Гбайт
    Продолжительность : 1 ч. 41 м.
    Режим общего битрейта : Переменный
    Общий поток : 7352 Кбит/сек
    Название фильма : Конвоиры
    Исполнитель : Dennis Hopper
    Режиссёр : Dennis Hopper
    Исполнитель : Tom Berenger/William McNamara/Erika Eleniak/Crispin Glover/Matthew Glave/Grand L. Bush/Dean Stockwell/Bitty Schram/Gary Busey/Seymour Cassel/Frederic Forrest/Marilu Henner/Dennis Hopper/Scott Marlowe/Jim Grimshaw
    Сценарист : Joe Batteer/John Rice/Joe Batteer/John Rice/Dan Gilroy
    Продюсер : James G. Robinson
    Исполнительный продюсер : Gary Barber
    Студия-производитель : Morgan Creek Productions, Warner Bros. Pictures
    Жанр : комедия, мелодрама
    Тип содержимого : Short Film
    Дата записи : UTC 1994-04-22 00:00:00
    Дата кодирования : UTC 2018-05-31 06:50:39
    Дата пометки : UTC 2018-05-31 09:30:23
    Обложка : Yes
    LongDescription : Офицер берегового патруля военно-морских сил Рок Рилли думал, что его уже ничем не удивишь. Его свежеиспеченному напарнику Эдди Дивейну тоже все осточертело, и он подумывает об увольнении из армии. Но удивляться им все-таки пришлось, они почувствовали себя настоящими юнцами, когда повстречались с лейтенантом ВМС Тони Джонсон, красивой и вздорной особой, которая и была тем заключенным, кого они должны были доставить на базу. Доставка должна проходить согласно заведенному порядку. Однако Тони намерена во что бы то ни стало вырваться на свободу…
    ContentRating : mpaa|R|400|
    Видео #1
    Идентификатор : 1
    Формат : AVC
    Формат/Информация : Advanced Video Codec
    Профиль формата : High@L4
    Настройки формата : CABAC/4 Ref Frames
    Параметр CABAC формата : Да
    Параметр ReFrames формата : 4 кадра
    Идентификатор кодека : avc1
    Идентификатор кодека/Информация : Advanced Video Coding
    Продолжительность : 1 ч. 41 м.
    Битрейт : 5160 Кбит/сек
    Ширина : 1916 пикселей
    Высота : 1076 пикселей
    Соотношение сторон : 16:9
    Режим частоты кадров : Переменный
    Частота кадров : 23, 976 кадра/сек
    Минимальная частота кадров : 23, 810 кадра/сек
    Максимальная частота кадров : 24, 390 кадра/сек
    Цветовое пространство : YUV
    Субдискретизация насыщенности : 4:2:0
    Битовая глубина : 8 бит
    Тип развёртки : Прогрессивная
    Бит/(Пиксели*Кадры) : 0.104
    Размер потока : 3, 65 Гбайт (70%)
    Язык : English
    Дата кодирования : UTC 2018-05-31 06:50:40
    Дата пометки : UTC 2018-05-31 09:29:41
    Цветовой диапазон : Limited
    Основные цвета : BT.709
    Характеристики трансфера : BT.709
    Коэффициенты матрицы : BT.709
    Menus : 10, 11
    Видео #2
    Идентификатор : 11
    Формат : JPEG
    Идентификатор кодека : jpeg
    Продолжительность : 1 ч. 41 м.
    Вид битрейта : Переменный
    Битрейт : 1740 бит/сек
    Ширина : 640 пикселей
    Высота : 359 пикселей
    Соотношение сторон : 16:9
    Режим частоты кадров : Переменный
    Частота кадров : 0, 005 кадр/сек
    Минимальная частота кадров : 0, 003 кадр/сек
    Максимальная частота кадров : 0, 015 кадр/сек
    Цветовое пространство : YUV
    Субдискретизация насыщенности : 4:2:0
    Битовая глубина : 8 бит
    Метод сжатия : С потерями
    Бит/(Пиксели*Кадры) : 1.515
    Размер потока : 1, 24 Мбайт (0%)
    Язык : English
    Default : Нет
    Дата кодирования : UTC 2018-05-31 09:30:19
    Дата пометки : UTC 2018-05-31 09:30:21
    Menu For : 1
    ColorSpace_ICC : RGB
    Аудио #1
    Идентификатор : 2
    Формат : AAC
    Формат/Информация : Advanced Audio Codec
    Профиль формата : LC
    Идентификатор кодека : mp4a-40-2
    Продолжительность : 1 ч. 41 м.
    Вид битрейта : Переменный
    Битрейт : 306 Кбит/сек
    Максимальный битрейт : 473 Кбит/сек
    Каналы : 2 канала
    Расположение каналов : Front: L R
    Частота : 48, 0 КГц
    Частота кадров : 46, 875 кадров/сек (1024 SPF)
    Метод сжатия : С потерями
    Размер потока : 222 Мбайт (4%)
    Язык : Russian
    Default : Да
    Alternate group : 1
    Дата кодирования : UTC 2018-05-31 06:50:41
    Дата пометки : UTC 2018-05-31 09:29:41
    tagc : public.auxiliary-content
    Аудио #2
    Идентификатор : 3
    Формат : AAC
    Формат/Информация : Advanced Audio Codec
    Профиль формата : LC
    Идентификатор кодека : mp4a-40-2
    Продолжительность : 1 ч. 41 м.
    Вид битрейта : Переменный
    Битрейт : 288 Кбит/сек
    Максимальный битрейт : 485 Кбит/сек
    Каналы : 2 канала
    Расположение каналов : Front: L R
    Частота : 48, 0 КГц
    Частота кадров : 46, 875 кадров/сек (1024 SPF)
    Метод сжатия : С потерями
    Размер потока : 213 Мбайт (4%)
    Язык : Russian
    Default : Нет
    Alternate group : 1
    Дата кодирования : UTC 2018-05-31 06:50:41
    Дата пометки : UTC 2018-05-31 09:29:41
    tagc : public.auxiliary-content
    Аудио #3
    Идентификатор : 4
    Формат : AAC
    Формат/Информация : Advanced Audio Codec
    Профиль формата : LC
    Идентификатор кодека : mp4a-40-2
    Продолжительность : 1 ч. 41 м.
    Вид битрейта : Переменный
    Битрейт : 295 Кбит/сек
    Максимальный битрейт : 493 Кбит/сек
    Каналы : 2 канала
    Расположение каналов : Front: L R
    Частота : 48, 0 КГц
    Частота кадров : 46, 875 кадров/сек (1024 SPF)
    Метод сжатия : С потерями
    Размер потока : 214 Мбайт (4%)
    Язык : Russian
    Default : Нет
    Alternate group : 1
    Дата кодирования : UTC 2018-05-31 06:50:41
    Дата пометки : UTC 2018-05-31 09:29:41
    Fallback From : 7
    tagc : public.main-program-content
    Аудио #4
    Идентификатор : 5
    Формат : AAC
    Формат/Информация : Advanced Audio Codec
    Профиль формата : LC
    Идентификатор кодека : mp4a-40-2
    Продолжительность : 1 ч. 41 м.
    Вид битрейта : Переменный
    Битрейт : 218 Кбит/сек
    Максимальный битрейт : 262 Кбит/сек
    Каналы : 2 канала
    Расположение каналов : Front: L R
    Частота : 48, 0 КГц
    Частота кадров : 46, 875 кадров/сек (1024 SPF)
    Метод сжатия : С потерями
    Размер потока : 158 Мбайт (3%)
    Язык : Russian
    Default : Нет
    Alternate group : 1
    Дата кодирования : UTC 2018-05-31 06:50:41
    Дата пометки : UTC 2018-05-31 09:29:41
    tagc : public.auxiliary-content
    Аудио #5
    Идентификатор : 6
    Формат : AAC
    Формат/Информация : Advanced Audio Codec
    Профиль формата : LC
    Идентификатор кодека : mp4a-40-2
    Продолжительность : 1 ч. 41 м.
    Вид битрейта : Переменный
    Битрейт : 295 Кбит/сек
    Максимальный битрейт : 497 Кбит/сек
    Каналы : 2 канала
    Расположение каналов : Front: L R
    Частота : 48, 0 КГц
    Частота кадров : 46, 875 кадров/сек (1024 SPF)
    Метод сжатия : С потерями
    Размер потока : 214 Мбайт (4%)
    Язык : English
    Default : Нет
    Alternate group : 1
    Дата кодирования : UTC 2018-05-31 06:50:41
    Дата пометки : UTC 2018-05-31 09:29:41
    Fallback From : 8
    tagc : public.main-program-content
    Аудио #6
    Идентификатор : 7
    Формат : AC-3
    Формат/Информация : Audio Coding 3
    Идентификатор кодека : ac-3
    Продолжительность : 1 ч. 41 м.
    Вид битрейта : Постоянный
    Битрейт : 384 Кбит/сек
    Каналы : 6 каналов
    Расположение каналов : Front: L C R, Side: L R, LFE
    Частота : 48, 0 КГц
    Частота кадров : 31, 250 кадров/сек (1536 SPF)
    Битовая глубина : 16 бит
    Метод сжатия : С потерями
    Размер потока : 278 Мбайт (5%)
    Язык : Russian
    Service kind : Complete Main
    Default : Нет
    Alternate group : 1
    Дата кодирования : UTC 2018-05-31 06:50:41
    Дата пометки : UTC 2018-05-31 09:29:41
    Fallback To : 4
    tagc : public.main-program-content
    Аудио #7
    Идентификатор : 8
    Формат : AC-3
    Формат/Информация : Audio Coding 3
    Идентификатор кодека : ac-3
    Продолжительность : 1 ч. 41 м.
    Вид битрейта : Постоянный
    Битрейт : 384 Кбит/сек
    Каналы : 6 каналов
    Расположение каналов : Front: L C R, Side: L R, LFE
    Частота : 48, 0 КГц
    Частота кадров : 31, 250 кадров/сек (1536 SPF)
    Битовая глубина : 16 бит
    Метод сжатия : С потерями
    Размер потока : 278 Мбайт (5%)
    Язык : English
    Service kind : Complete Main
    Default : Нет
    Alternate group : 1
    Дата кодирования : UTC 2018-05-31 06:50:41
    Дата пометки : UTC 2018-05-31 09:29:41
    Fallback To : 6
    tagc : public.main-program-content
    Текст
    Идентификатор : 9
    Формат : Timed Text
    Режим смешивания : sbtl
    Идентификатор кодека : tx3g
    Продолжительность : 1 ч. 41 м.
    Вид битрейта : Переменный
    Битрейт : 60 бит/сек
    Размер потока : 44, 5 Кбайт (0%)
    Язык : English
    Default : Да
    Forced : Нет
    Alternate group : 2
    Дата кодирования : UTC 2018-05-31 06:50:41
    Дата пометки : UTC 2018-05-31 09:29:41
    tagc : public.main-program-content
    Меню
    Идентификатор : 10
    Идентификатор кодека : text
    Продолжительность : 1 ч. 41 м.
    Язык : English
    Дата кодирования : UTC 2018-05-31 09:29:41
    Дата пометки : UTC 2018-05-31 09:29:41
    Menu For : 1
    00:00:00.000 : Day Before Discharge
    00:03:06.000 : Update on Eddie\'s Baby
    00:04:13.000 : Last, Final Scam
    00:07:05.000 : Chaser Duty/Secret Stash
    00:11:08.000 : Rock\'s New Partner
    00:14:14.000 : Not Good with People...
    00:17:12.000 : Jarheads Meet Fishboys
    00:21:40.000 : The Prisoner
    00:26:15.000 : No Rest at the Rest Stop
    00:32:17.000 : Sabotage
    00:37:43.000 : A Short Cut
    00:41:28.999 : Irony on Foot
    00:45:02.000 : Unexpected Depth
    00:47:03.000 : Shirts - and More...
    00:50:14.000 : Duane Lends a Tow
    00:53:14.000 : Toni\'s Story
    00:58:18.000 : No More Car, No More...
    01:02:48.000 : Unlocked
    01:07:22.000 : Toni Goes for a Ride
    01:09:58.000 : They call me Doggie
    01:11:04.000 : Doggie\'s Day
    01:13:29.000 : Collision Course
    01:16:33.000 : Fugitive Apprehended
    01:19:08.000 : Miniature Golf Mayhem
    01:21:11.000 : Belonging Where Toni...
    01:24:33.000 : Letting Go
    01:28:45.000 : Those Guys Don\'t...
    01:30:17.000 : Gettin\' the Girl Out
    01:35:50.000 : Contented Couples
    01:37:37.000 : End Credits
    Вид битрейта : VBR



    Chasers/Конвоиры (1994) WEB-DL [1080p] ATV
    Рейтинг →
     (голосов: 1, оценка 3/5, голосовать можно 1 раз )

    Другие торренты по теме:

  • Конвоиры / Chasers (1994) DVDRip скачать через торрент бесплатно
  • Конвоиры / Chasers (1994) WEB-DLRip [H.264]


    • Комментарии (0):

      Информация

      Информация

        Посетители, находящиеся в группе Гости, не могут оставлять комментарии в данной новости.

        ↓ Меню




        ↓ Опрос

        Вы добавили сайт в закладки?
        Да
        Нет


        Top 10 за месяц (Программы)