.
Авторизация | Регистрация
Хочешь лучшие торренты? Добавь свой email!
Добавить

Торрент скачать бесплатно

  • support: webmaster@btracker.org
» » Рассказ / The Tale (2018) WEB-DL [1080p] ATV (MVO) торрент скачать бесплатно


    Рассказ / The Tale (2018) WEB-DL [1080p] ATV (MVO) торрент скачать бесплатно

    Опубликовал: Админ | Дата: 1-06-2018, 05:00 | .torrent скачали: 0

    Рассказ / The Tale (2018) WEB-DL [1080p] ATV (MVO)Производство: США, Германия/A Luminous Mind Production, WeatherVane Productions, ONE TWO Films, Blackbird Films, Gamechanger Films
    Жанр: Триллер, Драма, Детектив
    Режиссер: Дженнифер Фокс
    Продюсер: Сол Бонди, Дженнифер Фокс, Лоуренс Ингли
    Актеры: Элизабет Дебики, Лора Дерн, Джон Хёрд, Джейсон Риттер, Эллен Бёрстин, Фрэнсис Конрой, Коммон, Лора Аллен, Челси Элден, Изабелла Амара

    Описание

    Мать успешной журналистки Дженнифер находит её ранний рассказ — исповедь 13-летней девочки о своей связи с двумя взрослыми тренерами. Несоответствия между найденными записями и собственными воспоминаниями побуждают Дженнифер разыскать своих давних любовников. Одновременно ей предстоит встреча со своим 13-летним двойником, который разрушит все представления Дженнифер о самой себе.

    Возраст: 16+ (16+, зрителям достигшим 16 лет)
    Дата мировой премьеры: 20 января 2018
    Дата российской премьеры: 27 мая 2018
    Продолжительность: 01: 54: 58
    Качество видео: WEB-DL 1080p (Amazon )
    Контейнер: M4V
    Перевод: Многоголосый (профессиональный, закадровый) (Кравец-Рекордз )
    Субтитры: Отсутствуют
    Видео: H.264, 1920x1080, 16: 9, 10 200 kbps, 23.976 fps
    Аудио#1 : AAC, 2.0 ch, 296 kbps, 48.0 kHz Русский | MVO Кравец-Рекордз |
    Аудио#2 : AAC, 2.0 ch, 296 kbps, 48.0 kHz English | Original |
    Аудио#3 : E-AC3, DD 5.1, 6.0 ch, 640 kbps, 48.0 kHz English| Original |
    Код: выделить все

    Общее
    Полное имя : /Users/The.Tale.2018.WEB-DL.1080p.m4v
    Формат : MPEG-4
    Идентификатор кодека : M4V (M4V /M4A /mp42/isom)
    Размер файла : 9, 16 Гбайт
    Продолжительность : 1 ч. 54 м.
    Режим общего битрейта : Переменный
    Общий поток : 11, 4 Мбит/сек
    Название фильма : Рассказ
    Исполнитель : Jennifer Fox
    Режиссёр : Jennifer Fox
    Исполнитель : Laura Dern/Isabelle Nélisse/Elizabeth Debicki/Jason Ritter/Ellen Burstyn/Common/Frances Conroy/John Heard/Jodi Long/Laura Allen/Matthew Rauch/Tina Parker/Gretchen Koerner/Shay Lee Abeson/Isabella Amara/Madison David/Thom Bishops/Noah Lomax/Daniel Berson/Chelsea Alden/Jaqueline Fleming/Scott Takeda/Brett Justin Koppel/Dana Healey/Grant James/Aaron Williamson/Juli Erickson/Jessica Sarah Flaum/Deana Deatherage/Paul Riley Fox/Rebecca Gamble/Katie Fairbanks/Jered Meeks/Emily Sandifer/Mobin Khan/Aaron Mitchell/Jenson Cheng/Russell Bradley Fenton/Rebecca Chulew/Keenan R. Carter/Kristi Taylor/Madara Jayasena/Malarie Drake/Matthew Thornton/Ricki Bhullar/Gloria Gonnillini/Jacquelin Lopez/Vincent Washington/Candice Richardson/Troy Compas/Tracey Mandella/Jennifer Haygood/Pixie Hankins/Susan Kirton/Cadence Lee Walker-Carroll/Aubrey Daigle
    Сценарист : Jennifer Fox
    Продюсер : Lawrence Inglee/Simone Pero/Oren Moverman/Sol Bondy/Laura Rister/Mynette Louie
    Исполнительный продюсер : Wendy Ettinger, Dan Cogan, Julie Parker Benello, Ali Jazayeri, Abigail Disney, Amy Rodrigue, Ross Marroso, Ben McConley, Geralyn White Dreyfous
    Студия-производитель : WeatherVane Productions, Blackbird Films, ONE TWO Films, A Luminous Mind Production
    Жанр : драма, детектив, триллер
    Тип содержимого : Short Film
    Дата записи : UTC 2018-01-20 00:00:00
    Дата кодирования : UTC 2018-05-31 15:30:22
    Дата пометки : UTC 2018-05-31 19:58:33
    Обложка : Yes
    LongDescription : Мать успешной журналистки Дженнифер находит её ранний рассказ — исповедь 13-летней девочки о своей связи с двумя взрослыми тренерами. Несоответствия между найденными записями и собственными воспоминаниями побуждают Дженнифер разыскать своих давних любовников. Одновременно ей предстоит встреча со своим 13-летним двойником, который разрушит все представления Дженнифер о самой себе.
    ContentRating : mpaa|Unrated|???|
    Видео
    Идентификатор : 1
    Формат : AVC
    Формат/Информация : Advanced Video Codec
    Профиль формата : High@L4
    Настройки формата : CABAC/4 Ref Frames
    Параметр CABAC формата : Да
    Параметр ReFrames формата : 4 кадра
    Идентификатор кодека : avc1
    Идентификатор кодека/Информация : Advanced Video Coding
    Продолжительность : 1 ч. 54 м.
    Битрейт : 10, 2 Мбит/сек
    Ширина : 1920 пикселей
    Высота : 1080 пикселей
    Соотношение сторон : 16:9
    Режим частоты кадров : Переменный
    Частота кадров : 23, 976 (24000/1001) кадра/сек
    Минимальная частота кадров : 23, 810 кадра/сек
    Максимальная частота кадров : 24, 390 кадра/сек
    Цветовое пространство : YUV
    Субдискретизация насыщенности : 4:2:0
    Битовая глубина : 8 бит
    Тип развёртки : Прогрессивная
    Бит/(Пиксели*Кадры) : 0.205
    Размер потока : 8, 17 Гбайт (89%)
    Язык : English
    Дата кодирования : UTC 2018-05-31 15:30:22
    Дата пометки : UTC 2018-05-31 19:58:32
    Цветовой диапазон : Limited
    Основные цвета : BT.709
    Характеристики трансфера : BT.709
    Коэффициенты матрицы : BT.709
    Аудио #1
    Идентификатор : 2
    Формат : AAC
    Формат/Информация : Advanced Audio Codec
    Профиль формата : LC
    Идентификатор кодека : mp4a-40-2
    Продолжительность : 1 ч. 54 м.
    Вид битрейта : Переменный
    Битрейт : 296 Кбит/сек
    Максимальный битрейт : 493 Кбит/сек
    Каналы : 2 канала
    Расположение каналов : Front: L R
    Частота : 48, 0 КГц
    Частота кадров : 46, 875 кадров/сек (1024 SPF)
    Метод сжатия : С потерями
    Размер потока : 244 Мбайт (3%)
    Язык : Russian
    Default : Да
    Alternate group : 1
    Дата кодирования : UTC 2018-05-31 15:30:22
    Дата пометки : UTC 2018-05-31 19:58:32
    tagc : public.main-program-content
    Аудио #2
    Идентификатор : 3
    Формат : AAC
    Формат/Информация : Advanced Audio Codec
    Профиль формата : LC
    Идентификатор кодека : mp4a-40-2
    Продолжительность : 1 ч. 54 м.
    Вид битрейта : Переменный
    Битрейт : 296 Кбит/сек
    Максимальный битрейт : 494 Кбит/сек
    Каналы : 2 канала
    Расположение каналов : Front: L R
    Частота : 48, 0 КГц
    Частота кадров : 46, 875 кадров/сек (1024 SPF)
    Метод сжатия : С потерями
    Размер потока : 243 Мбайт (3%)
    Язык : English
    Default : Нет
    Alternate group : 1
    Дата кодирования : UTC 2018-05-31 15:30:32
    Дата пометки : UTC 2018-05-31 19:58:32
    Fallback From : 4
    tagc : public.main-program-content
    Аудио #3
    Идентификатор : 4
    Формат : E-AC-3
    Формат/Информация : Enhanced Audio Coding 3
    Идентификатор кодека : ec-3
    Продолжительность : 1 ч. 54 м.
    Вид битрейта : Постоянный
    Битрейт : 640 Кбит/сек
    Каналы : 6 каналов
    Расположение каналов : Front: L C R, Side: L R, LFE
    Частота : 48, 0 КГц
    Частота кадров : 187, 500 кадров/сек (256 SPF)
    Битовая глубина : 16 бит
    Метод сжатия : С потерями
    Размер потока : 526 Мбайт (6%)
    Язык : English
    Service kind : Complete Main
    Default : Нет
    Alternate group : 1
    Дата кодирования : UTC 2018-05-31 15:30:32
    Дата пометки : UTC 2018-05-31 19:58:32
    Fallback To : 3
    tagc : public.main-program-content
    Текст #1
    Идентификатор : 5
    Формат : Timed Text
    Режим смешивания : sbtl
    Идентификатор кодека : tx3g
    Продолжительность : 1 ч. 54 м.
    Вид битрейта : Переменный
    Битрейт : 75 бит/сек
    Размер потока : 62, 6 Кбайт (0%)
    Язык : English
    Default : Да
    Forced : Нет
    Alternate group : 2
    Дата кодирования : UTC 2018-05-31 15:30:32
    Дата пометки : UTC 2018-05-31 19:58:33
    tagc : public.main-program-content
    Текст #2
    Идентификатор : 6
    Формат : Timed Text
    Режим смешивания : sbtl
    Идентификатор кодека : tx3g
    Продолжительность : 1 ч. 54 м.
    Вид битрейта : Переменный
    Битрейт : 79 бит/сек
    Размер потока : 66, 6 Кбайт (0%)
    Язык : English
    Default : Нет
    Forced : Нет
    Alternate group : 2
    Дата кодирования : UTC 2018-05-31 15:30:32
    Дата пометки : UTC 2018-05-31 19:58:33
    tagc : public.auxiliary-content



    Рассказ/The Tale (2018) WEB-DL [1080p] ATV (MVO)
    Рейтинг →
     (голосов: 1, оценка 4/5, голосовать можно 1 раз )

    Другие торренты по теме:

  • Рассказ служанки / The Handmaids Tale (2017) WEBRip (сезон 1, серии 1-2 из 10) SDI Media (обновляемая)
  • Рассказ служанки / The Handmaids Tale (2017) WEBRip (сезон 1, серии 1 из 10) LostFilm (обновляемая)
  • Рассказ служанки / The Handmaids Tale (2017) WEBRip [H.264 / 1080p -LQ] (сезон 1, серии 1 из 10) LostFilm (обновляемая)
  • Рассказ женщины / A Womans Tale (1991) TVRip [AVO]
  • Рассказ служанки / The Handmaids Tale (2018) WEBRip (сезон 2, серии 1 из 13) LostFilm (обновляемая)
  • Рассказ / The Tale (2018) WEB-DL [H.264 / 720p-LQ]


    • Комментарии (0):

      Информация

      Информация

        Посетители, находящиеся в группе Гости, не могут оставлять комментарии в данной новости.

        ↓ Меню




        ↓ Опрос

        Вы добавили сайт в закладки?
        Да
        Нет


        Top 10 за месяц (Программы)