.
Авторизация | Регистрация
Хочешь лучшие торренты? Добавь свой email!
Добавить

Торрент скачать бесплатно

  • support: webmaster@btracker.org
» » Трое в каноэ / Without a Paddle (2004) BDRip [1080p] ATV торрент скачать бесплатно


    Трое в каноэ / Without a Paddle (2004) BDRip [1080p] ATV торрент скачать бесплатно

    Опубликовал: Админ | Дата: 1-06-2018, 05:00 | .torrent скачали: 0

    Трое в каноэ / Without a Paddle (2004) BDRip [1080p] ATVПроизводство: США, Новая Зеландия/De Line Pictures, Paramount Pictures
    Жанр: Комедия, Приключения
    Режиссер: Стивен Брилл
    Продюсер: Дональд Де Лайн, Эндрю Хаас, Венди Джафет
    Актеры: Сет Грин, Мэттью Лиллард, Дэкс Шепард, Итан Сапли, Берт Рейнолдс, Рэй Бэйкер, Абрахам Бенруби, Мэттью Прайс, Эндрю Хэмптон, Джаред Рамболд

    Описание

    Это история трёх друзей из большого города, которые отправляются на поиски потерянных 200 тысяч долларов, которые сбросил с парашютом знаменитый угонщик самолёта Д. Б. Купер. Очень скоро трио понимает, что их попытка плыть на каноэ не очень-то удалась и всё идёт не так: и река становится опасной, да ещё какой-то мужик, что живёт у реки, всё время мешается под ногами…

    Возраст: 16+ (16+, зрителям достигшим 16 лет)
    Рейтинг MPAA: PG-13 (детям до 13 лет просмотр нежелателен)
    Дата мировой премьеры: 20 августа 2004
    Дата российской премьеры: 11 ноября 2004, UIP
    Продолжительность: 01: 38: 52
    Качество видео: BDRip 1080p
    Контейнер: M4V
    Перевод: Дублированный (iTunes), Профессиональный (многоголосый, закадровый)
    Субтитры: Русские (вшитые, отключаемые), Английские (вшитые, отключаемые)
    Видео: H.264, 1916x816, 2.35: 1, 7 700 kbps, 23.976 fps
    Аудио#1 : AAC, 2.0 ch, 265 kbps, 48.0 kHz Русский | DUB iTunes |
    Аудио#2 : AAC, 2.0 ch, 265 kbps, 48.0 kHz Русский | MVO Неизвестно |
    Аудио#3 : AAC, 2.0 ch, 265 kbps, 48.0 kHz English | Original |
    Аудио#4 : AC3, DD 5.1, 6.0 ch, 640 kbps, 48.0 kHz Русский | DUB iTunes |
    Аудио#5 : AC3, DD 5.1, 6.0 ch, 640 kbps, 48.0 kHz Русский | MVO Неизвестно |
    Аудио#6 : AC3, DD 5.1, 6.0 ch, 640 kbps, 48.0 kHz English| Original |
    Код: выделить все

    Общее
    Полное имя : /Users/Without.A.Paddle.2004.BDRip.1080p.m4v
    Формат : MPEG-4
    Профиль формата : Base Media/Version 2
    Идентификатор кодека : mp42 (isom/iso2/avc1/mp41)
    Размер файла : 7, 07 Гбайт
    Продолжительность : 1 ч. 38 м.
    Режим общего битрейта : Переменный
    Общий поток : 10, 2 Мбит/сек
    Название фильма : Трое в каноэ
    Исполнитель : Steven Brill
    Режиссёр : Steven Brill
    Исполнитель : Seth Green/Matthew Lillard/Dax Shepard/Ethan Suplee/Abraham Benrubi/Rachel Blanchard/Burt Reynolds/Christina Moore/Bonnie Somerville/Ray Baker
    Жанр : Комедии
    Тип содержимого : Short Film
    Дата записи : UTC 2000-01-01 08:00:00
    Дата кодирования : UTC 2018-05-31 04:29:33
    Дата пометки : UTC 2018-05-31 13:19:24
    Программа кодирования : HandBrake 1.1.0 2018040700
    Авторское право : © 2004 Paramount Pictures.
    Обложка : Yes
    LongDescription : Трое друзей детства отправляются в дикие места Орегона в поисках пропавшего сокровища. Они плывут вверх по реке в каноэ, и с ними происходят все неприятности, которые только могут произойти. Пока за ними охотятся два захолустных фермера, они сталкиваются со стремительными погонями, соблазнительными девушками, живущими на деревьях и сумасшедшим стариком, живущим в горах, которого играет Барт Рейнольдс.
    AppleStoreCountry : Russia
    AppleStoreCatalogID : 209041749
    ContentRating : ru-movie|12+|200|
    Видео #1
    Идентификатор : 1
    Формат : AVC
    Формат/Информация : Advanced Video Codec
    Профиль формата :High@L4.1
    Настройки формата : CABAC/5 Ref Frames
    Параметр CABAC формата : Да
    Параметр ReFrames формата : 5 кадров
    Идентификатор кодека : avc1
    Идентификатор кодека/Информация : Advanced Video Coding
    Продолжительность : 1 ч. 38 м.
    Битрейт : 7700 Кбит/сек
    Ширина : 1916 пикселей
    Высота : 816 пикселей
    Соотношение сторон : 2, 35:1
    Режим частоты кадров : Переменный
    Частота кадров : 23, 976 (24000/1001) кадра/сек
    Минимальная частота кадров : 23, 974 кадра/сек
    Максимальная частота кадров : 23, 981 кадра/сек
    Цветовое пространство : YUV
    Субдискретизация насыщенности : 4:2:0
    Битовая глубина : 8 бит
    Тип развёртки : Прогрессивная
    Бит/(Пиксели*Кадры) : 0.205
    Размер потока : 5, 18 Гбайт (73%)
    Библиотека кодирования : x264 core 155 r2893 b00bcaf
    Настройки программы : cabac=1/ref=5/deblock=1:-1:-1/analyse=0x3:0x133/me=umh/subme=9/psy=1/psy_rd=1.00:0.15/mixed_ref=1/me_range=16/chroma_me=1/trellis=2/8x8dct=1/cqm=0/deadzone=21, 11/fast_pskip=1/chroma_qp_offset=-3/threads=6/lookahead_threads=1/sliced_threads=0/nr=0/decimate=1/interlaced=0/bluray_compat=0/constrained_intra=0/bframes=3/b_pyramid=2/b_adapt=2/b_bias=0/direct=3/weightb=1/open_gop=0/weightp=2/keyint=240/keyint_min=24/scenecut=40/intra_refresh=0/rc_lookahead=60/rc=abr/mbtree=1/bitrate=7700/ratetol=1.0/qcomp=0.60/qpmin=0/qpmax=69/qpstep=4/vbv_maxrate=62500/vbv_bufsize=78125/nal_hrd=none/filler=0/ip_ratio=1.40/aq=1:1.00
    Язык : English
    Дата кодирования : UTC 2018-05-31 04:29:33
    Дата пометки : UTC 2018-05-31 04:29:33
    Цветовой диапазон : Limited
    Основные цвета : BT.709
    Характеристики трансфера : BT.709
    Коэффициенты матрицы : BT.709
    Menus : 10, 11
    Видео #2
    Идентификатор : 11
    Формат : JPEG
    Идентификатор кодека : jpeg
    Продолжительность : 1 ч. 38 м.
    Вид битрейта : Переменный
    Битрейт : 504 бит/сек
    Ширина : 640 пикселей
    Высота : 272 пикселя
    Соотношение сторон : 2, 35:1
    Режим частоты кадров : Переменный
    Частота кадров : 0, 002 кадр/сек
    Минимальная частота кадров : 0, 002 кадр/сек
    Максимальная частота кадров : 0, 003 кадр/сек
    Цветовое пространство : YUV
    Субдискретизация насыщенности : 4:2:0
    Битовая глубина : 8 бит
    Метод сжатия : С потерями
    Бит/(Пиксели*Кадры) : 1.448
    Размер потока : 431 Кбайт (0%)
    Язык : English
    Default : Нет
    Дата кодирования : UTC 2018-05-31 13:19:22
    Дата пометки : UTC 2018-05-31 13:19:22
    Menu For : 1
    ColorSpace_ICC : RGB
    Аудио #1
    Идентификатор : 2
    Формат : AAC
    Формат/Информация : Advanced Audio Codec
    Профиль формата : LC
    Идентификатор кодека : mp4a-40-2
    Продолжительность : 1 ч. 38 м.
    Вид битрейта : Переменный
    Битрейт : 265 Кбит/сек
    Максимальный битрейт : 472 Кбит/сек
    Каналы : 2 канала
    Расположение каналов : Front: L R
    Частота : 48, 0 КГц
    Частота кадров : 46, 875 кадров/сек (1024 SPF)
    Метод сжатия : С потерями
    Размер потока : 186 Мбайт (3%)
    Заголовок : Stereo/Stereo
    Язык : Russian
    Default : Да
    Alternate group : 1
    Дата кодирования : UTC 2018-05-31 04:29:33
    Дата пометки : UTC 2018-05-31 04:29:33
    Fallback From : 5
    Menus : 10
    tagc : public.main-program-content
    Аудио #2
    Идентификатор : 3
    Формат : AAC
    Формат/Информация : Advanced Audio Codec
    Профиль формата : LC
    Идентификатор кодека : mp4a-40-2
    Продолжительность : 1 ч. 38 м.
    Вид битрейта : Переменный
    Битрейт : 265 Кбит/сек
    Максимальный битрейт : 486 Кбит/сек
    Каналы : 2 канала
    Расположение каналов : Front: L R
    Частота : 48, 0 КГц
    Частота кадров : 46, 875 кадров/сек (1024 SPF)
    Метод сжатия : С потерями
    Размер потока : 186 Мбайт (3%)
    Заголовок : Stereo/Stereo
    Язык : Russian
    Default : Нет
    Alternate group : 1
    Дата кодирования : UTC 2018-05-31 04:29:33
    Дата пометки : UTC 2018-05-31 04:29:33
    Fallback From : 6
    Menus : 10
    tagc : public.auxiliary-content
    Аудио #3
    Идентификатор : 4
    Формат : AAC
    Формат/Информация : Advanced Audio Codec
    Профиль формата : LC
    Идентификатор кодека : mp4a-40-2
    Продолжительность : 1 ч. 38 м.
    Вид битрейта : Переменный
    Битрейт : 265 Кбит/сек
    Максимальный битрейт : 476 Кбит/сек
    Каналы : 2 канала
    Расположение каналов : Front: L R
    Частота : 48, 0 КГц
    Частота кадров : 46, 875 кадров/сек (1024 SPF)
    Метод сжатия : С потерями
    Размер потока : 186 Мбайт (3%)
    Заголовок : Stereo/Stereo
    Язык : English
    Default : Нет
    Alternate group : 1
    Дата кодирования : UTC 2018-05-31 04:29:33
    Дата пометки : UTC 2018-05-31 04:29:33
    Fallback From : 7
    Menus : 10
    tagc : public.main-program-content
    Аудио #4
    Идентификатор : 5
    Формат : AC-3
    Формат/Информация : Audio Coding 3
    Идентификатор кодека : ac-3
    Продолжительность : 1 ч. 38 м.
    Вид битрейта : Постоянный
    Битрейт : 640 Кбит/сек
    Каналы : 6 каналов
    Расположение каналов : Front: L C R, Side: L R, LFE
    Частота : 48, 0 КГц
    Частота кадров : 31, 250 кадров/сек (1536 SPF)
    Битовая глубина : 16 бит
    Метод сжатия : С потерями
    Размер потока : 452 Мбайт (6%)
    Заголовок : Surround/Surround
    Язык : Russian
    Service kind : Complete Main
    Default : Inherited From: 2
    Alternate group : 1
    Дата кодирования : UTC 2018-05-31 04:29:33
    Дата пометки : UTC 2018-05-31 04:29:33
    Fallback To : 2
    tagc : public.main-program-content
    Аудио #5
    Идентификатор : 6
    Формат : AC-3
    Формат/Информация : Audio Coding 3
    Идентификатор кодека : ac-3
    Продолжительность : 1 ч. 38 м.
    Вид битрейта : Постоянный
    Битрейт : 640 Кбит/сек
    Каналы : 6 каналов
    Расположение каналов : Front: L C R, Side: L R, LFE
    Частота : 48, 0 КГц
    Частота кадров : 31, 250 кадров/сек (1536 SPF)
    Битовая глубина : 16 бит
    Метод сжатия : С потерями
    Размер потока : 453 Мбайт (6%)
    Заголовок : Surround/Surround
    Язык : Russian
    Service kind : Complete Main
    Default : Нет
    Alternate group : 1
    Дата кодирования : UTC 2018-05-31 04:29:33
    Дата пометки : UTC 2018-05-31 04:29:33
    Fallback To : 3
    tagc : public.auxiliary-content
    Аудио #6
    Идентификатор : 7
    Формат : AC-3
    Формат/Информация : Audio Coding 3
    Идентификатор кодека : ac-3
    Продолжительность : 1 ч. 38 м.
    Вид битрейта : Постоянный
    Битрейт : 640 Кбит/сек
    Каналы : 6 каналов
    Расположение каналов : Front: L C R, Side: L R, LFE
    Частота : 48, 0 КГц
    Частота кадров : 31, 250 кадров/сек (1536 SPF)
    Битовая глубина : 16 бит
    Метод сжатия : С потерями
    Размер потока : 453 Мбайт (6%)
    Заголовок : Surround/Surround
    Язык : English
    Service kind : Complete Main
    Default : Нет
    Alternate group : 1
    Дата кодирования : UTC 2018-05-31 04:29:33
    Дата пометки : UTC 2018-05-31 04:29:33
    Fallback To : 4
    tagc : public.main-program-content
    Текст #1
    Идентификатор : 8
    Формат : Timed Text
    Режим смешивания : sbtl
    Идентификатор кодека : tx3g
    Продолжительность : 1 ч. 34 м.
    Вид битрейта : Переменный
    Битрейт : 130 бит/сек
    Размер потока : 89, 7 Кбайт (0%)
    Язык : Russian
    Default : Да
    Forced : Нет
    Alternate group : 2
    Дата кодирования : UTC 2018-05-31 04:29:33
    Дата пометки : UTC 2018-05-31 04:29:33
    Menus : 10
    tagc : public.main-program-content
    Текст #2
    Идентификатор : 9
    Формат : Timed Text
    Режим смешивания : sbtl
    Идентификатор кодека : tx3g
    Продолжительность : 1 ч. 34 м.
    Вид битрейта : Переменный
    Битрейт : 90 бит/сек
    Размер потока : 62, 3 Кбайт (0%)
    Язык : English
    Default : Нет
    Forced : Нет
    Alternate group : 2
    Дата кодирования : UTC 2018-05-31 04:29:33
    Дата пометки : UTC 2018-05-31 04:29:33
    Menus : 10
    tagc : public.main-program-content
    Меню
    Идентификатор : 10
    Идентификатор кодека : text
    Продолжительность : 1 ч. 38 м.
    Язык : English
    Дата кодирования : UTC 2018-05-31 04:29:33
    Дата пометки : UTC 2018-05-31 04:29:33
    Вид битрейта : CBR
    Menu For : 1, 2, 3, 4, 8, 9
    00:00:00.000 : 00:00:00.000
    00:08:12.492 : 00:08:12.325
    00:15:47.238 : 00:15:47.238
    00:23:15.769 : 00:23:15.728
    00:28:48.268 : 00:28:48.268
    00:34:24.854 : 00:34:24.854
    00:42:11.612 : 00:42:11.612
    00:49:49.320 : 00:49:49.320
    00:58:07.275 : 00:58:07.275
    01:05:39.561 : 01:05:39.435
    01:10:28.099 : 01:10:28.057
    01:15:20.641 : 01:15:20.641
    01:22:26.024 : 01:22:26.024
    01:30:06.359 : 01:30:06.359



    Трое в каноэ/Without a Paddle (2004) BDRip [1080p] ATV
    Рейтинг →
     (голосов: 1, оценка 3/5, голосовать можно 1 раз )

    Другие торренты по теме:

  • Трое в каноэ / Без весла / Without a paddle (2004) Blu-ray [H.264 / 1080p] [Custom]
  • Трое в каноэ / Without a Paddle (2004) BDRip [H.264 / 720р-LQ]


    • Комментарии (0):

      Информация

      Информация

        Посетители, находящиеся в группе Гости, не могут оставлять комментарии в данной новости.

        ↓ Меню




        ↓ Опрос

        Вы добавили сайт в закладки?
        Да
        Нет


        Top 10 за месяц (Программы)