.
Авторизация | Регистрация
Хочешь лучшие торренты? Добавь свой email!
Добавить

Торрент скачать бесплатно

  • support: webmaster@btracker.org
» » Обитель теней / Marrowbone (2017) BDRip [1080p] ATV торрент скачать бесплатно


    Обитель теней / Marrowbone (2017) BDRip [1080p] ATV торрент скачать бесплатно

    Опубликовал: Админ | Дата: 31-05-2018, 05:00 | .torrent скачали: 1

    Обитель теней / Marrowbone (2017) BDRip [1080p] ATVПроизводство: Испания/Lions Gate International, Marrowbone, Telecinco Cinema
    Жанр: Ужасы, Триллер, Драма
    Режиссер: Серхио Х. Санчес
    Продюсер: Белен Атьенса, Альваро Аугустин, Жислен Баруа
    Актеры: Джордж МакКэй, Аня Тейлор-Джой, Чарли Хитон, Миа Гот, Мэттью Стэгг, Николя Харрисон, Кайл Соллер, Том Фишер, Пол Джессон

    Описание

    Мрачная тайна окутывает старинный особняк, в котором Джек уединенно живет с братьями и сестрой. Однако обитель теней открыла свои двери для прекрасной незнакомки, живущей по соседству. Она пока не знает, что здесь в любой момент зловещие силы готовы нанести удар из темноты…

    Возраст: 18+ (зрителям, достигшим 18 лет. запрещено для детей)
    Рейтинг MPAA: R (лицам до 17 лет обязательно присутствие взрослого)
    Дата мировой премьеры: 11 сентября 2017
    Дата российской премьеры: 16 ноября 2017, Вольга
    Продолжительность: 01: 50: 41
    Качество видео: BDRip 1080p
    Контейнер: M4V
    Перевод: Дублированный (iTunes )
    Субтитры: Английские (вшитые, отключаемые), Испанские (вшитые, отключаемые)
    Видео: H.264, 1920x800, 2.40: 1, 7 423 kbps, 23.976 fps
    Аудио#1 : AAC, 2.0 ch, 296 kbps, 48.0 kHz Русский | DUB iTunes |
    Аудио#2 : AAC, 2.0 ch, 288 kbps, 48.0 kHz English
    Аудио#3 : AC3, DD 5.1, 6.0 ch, 384 kbps, 48.0 kHz Русский | DUB iTunes |
    Аудио#4 : AC3, DD 5.1, 6.0 ch, 640 kbps, 48.0 kHz English
    Код: выделить все

    Общее
    Полное имя : /Users/Marrowbone.2017.BDRip.1080p.m4v
    Формат : MPEG-4
    Идентификатор кодека : M4V (M4V /M4A /mp42/isom)
    Размер файла : 6, 99 Гбайт
    Продолжительность : 1 ч. 50 м.
    Режим общего битрейта : Переменный
    Общий поток : 9043 Кбит/сек
    Название фильма : Обитель теней
    Исполнитель : Серхио Х. Санчес
    Режиссёр : Серхио Х. Санчес
    Исполнитель : Аня Тейлор-Джой/Чарли Хитон/Джордж МакКэ/Миа Гот/Мэттью Стэгг
    Продюсер : Белен Атьенса/Жислен Баруа/Хуан Антонио Байона
    Жанр : Триллеры
    Тип содержимого : Short Film
    Дата записи : UTC 2017-11-16 08:00:00
    Дата кодирования : UTC 2018-05-30 04:13:45
    Дата пометки : UTC 2018-05-30 04:37:02
    Авторское право : © 2017 Volga Film
    Обложка : Yes
    LongDescription : Мрачная тайна окутывает старинный особняк, в котором Джек уединенно живет с братьями и сестрой. Однако обитель теней открыла свои двери для прекрасной незнакомки, живущей по соседству. Она пока не знает, что здесь в любой момент зловещие силы готовы нанести удар из темноты…
    AppleStoreCountry : Russia
    AppleStoreCatalogID : 1347020222
    ContentRating : ru-movie|18+|400|
    Видео #1
    Идентификатор : 1
    Формат : AVC
    Формат/Информация : Advanced Video Codec
    Профиль формата :High@L4.1
    Настройки формата : CABAC/5 Ref Frames
    Параметр CABAC формата : Да
    Параметр ReFrames формата : 5 кадров
    Идентификатор кодека : avc1
    Идентификатор кодека/Информация : Advanced Video Coding
    Продолжительность : 1 ч. 50 м.
    Битрейт : 7423 Кбит/сек
    Ширина : 1920 пикселей
    Высота : 800 пикселей
    Соотношение сторон : 2, 40:1
    Соотношение сторон в оригинале : 2, 40:1
    Режим частоты кадров : Переменный
    Частота кадров : 23, 976 (24000/1001) кадра/сек
    Минимальная частота кадров : 23, 810 кадра/сек
    Максимальная частота кадров : 24, 390 кадра/сек
    Цветовое пространство : YUV
    Субдискретизация насыщенности : 4:2:0
    Битовая глубина : 8 бит
    Тип развёртки : Прогрессивная
    Бит/(Пиксели*Кадры) : 0.202
    Размер потока : 5, 74 Гбайт (82%)
    Библиотека кодирования : x264 core 155 r2901M 7d0ff22
    Настройки программы : cabac=1/ref=5/deblock=1:-2:-2/analyse=0x3:0x111/me=umh/subme=11/psy=1/psy_rd=1.00:0.05/mixed_ref=1/me_range=48/chroma_me=1/trellis=2/8x8dct=1/cqm=0/deadzone=21, 11/fast_pskip=0/chroma_qp_offset=-3/threads=9/lookahead_threads=2/sliced_threads=0/nr=0/decimate=0/interlaced=0/bluray_compat=0/constrained_intra=0/bframes=12/b_pyramid=2/b_adapt=2/b_bias=0/direct=3/weightb=1/open_gop=0/weightp=2/keyint=240/keyint_min=23/scenecut=40/intra_refresh=0/rc_lookahead=100/rc=2pass/mbtree=0/bitrate=7423/ratetol=1.0/qcomp=0.70/qpmin=0/qpmax=69/qpstep=4/cplxblur=20.0/qblur=0.5/vbv_maxrate=50000/vbv_bufsize=50000/nal_hrd=none/filler=0/ip_ratio=1.40/pb_ratio=1.30/aq=1:0.70
    Язык : Spanish
    Дата кодирования : UTC 2018-05-30 04:13:45
    Дата пометки : UTC 2018-05-30 04:36:38
    Menus : 8, 9
    Видео #2
    Идентификатор : 9
    Формат : JPEG
    Идентификатор кодека : jpeg
    Продолжительность : 1 ч. 50 м.
    Вид битрейта : Переменный
    Битрейт : 556 бит/сек
    Ширина : 640 пикселей
    Высота : 267 пикселей
    Соотношение сторон : 2, 40:1
    Режим частоты кадров : Переменный
    Частота кадров : 0, 002 кадр/сек
    Минимальная частота кадров : 0, 001 кадр/сек
    Максимальная частота кадров : 0, 004 кадр/сек
    Цветовое пространство : YUV
    Субдискретизация насыщенности : 4:2:0
    Битовая глубина : 8 бит
    Метод сжатия : С потерями
    Бит/(Пиксели*Кадры) : 1.627
    Размер потока : 407 Кбайт (0%)
    Язык : Spanish
    Default : Нет
    Дата кодирования : UTC 2018-05-30 04:37:01
    Дата пометки : UTC 2018-05-30 04:37:01
    Menu For : 1
    ColorSpace_ICC : RGB
    Аудио #1
    Идентификатор : 2
    Формат : AAC
    Формат/Информация : Advanced Audio Codec
    Профиль формата : LC
    Идентификатор кодека : mp4a-40-2
    Продолжительность : 1 ч. 50 м.
    Вид битрейта : Переменный
    Битрейт : 296 Кбит/сек
    Максимальный битрейт : 497 Кбит/сек
    Каналы : 2 канала
    Расположение каналов : Front: L R
    Частота : 48, 0 КГц
    Частота кадров : 46, 875 кадров/сек (1024 SPF)
    Метод сжатия : С потерями
    Размер потока : 234 Мбайт (3%)
    Язык : Russian
    Default : Да
    Alternate group : 1
    Дата кодирования : UTC 2018-05-30 04:13:45
    Дата пометки : UTC 2018-05-30 04:36:38
    Fallback From : 4
    tagc : public.main-program-content
    Аудио #2
    Идентификатор : 3
    Формат : AAC
    Формат/Информация : Advanced Audio Codec
    Профиль формата : LC
    Идентификатор кодека : mp4a-40-2
    Продолжительность : 1 ч. 50 м.
    Вид битрейта : Переменный
    Битрейт : 288 Кбит/сек
    Максимальный битрейт : 497 Кбит/сек
    Каналы : 2 канала
    Расположение каналов : Front: L R
    Частота : 48, 0 КГц
    Частота кадров : 46, 875 кадров/сек (1024 SPF)
    Метод сжатия : С потерями
    Размер потока : 232 Мбайт (3%)
    Язык : English
    Default : Нет
    Alternate group : 1
    Дата кодирования : UTC 2018-05-30 04:13:45
    Дата пометки : UTC 2018-05-30 04:36:38
    Fallback From : 5
    tagc : public.main-program-content
    Аудио #3
    Идентификатор : 4
    Формат : AC-3
    Формат/Информация : Audio Coding 3
    Идентификатор кодека : ac-3
    Продолжительность : 1 ч. 50 м.
    Вид битрейта : Постоянный
    Битрейт : 384 Кбит/сек
    Каналы : 6 каналов
    Расположение каналов : Front: L C R, Side: L R, LFE
    Частота : 48, 0 КГц
    Частота кадров : 31, 250 кадров/сек (1536 SPF)
    Битовая глубина : 16 бит
    Метод сжатия : С потерями
    Размер потока : 304 Мбайт (4%)
    Язык : Russian
    Service kind : Complete Main
    Default : Inherited From: 2
    Alternate group : 1
    Дата кодирования : UTC 2018-05-30 04:13:45
    Дата пометки : UTC 2018-05-30 04:36:38
    Fallback To : 2
    tagc : public.main-program-content
    Аудио #4
    Идентификатор : 5
    Формат : AC-3
    Формат/Информация : Audio Coding 3
    Идентификатор кодека : ac-3
    Продолжительность : 1 ч. 50 м.
    Вид битрейта : Постоянный
    Битрейт : 640 Кбит/сек
    Каналы : 6 каналов
    Расположение каналов : Front: L C R, Side: L R, LFE
    Частота : 48, 0 КГц
    Частота кадров : 31, 250 кадров/сек (1536 SPF)
    Битовая глубина : 16 бит
    Метод сжатия : С потерями
    Размер потока : 507 Мбайт (7%)
    Язык : English
    Service kind : Complete Main
    Default : Нет
    Alternate group : 1
    Дата кодирования : UTC 2018-05-30 04:13:45
    Дата пометки : UTC 2018-05-30 04:36:38
    Fallback To : 3
    tagc : public.main-program-content
    Текст #1
    Идентификатор : 6
    Формат : Timed Text
    Режим смешивания : sbtl
    Идентификатор кодека : tx3g
    Продолжительность : 1 ч. 43 м.
    Вид битрейта : Переменный
    Битрейт : 39 бит/сек
    Размер потока : 29, 4 Кбайт (0%)
    Язык : English
    Default : Да
    Forced : Нет
    Alternate group : 2
    Дата кодирования : UTC 2018-05-30 04:13:45
    Дата пометки : UTC 2018-05-30 04:36:38
    tagc : public.main-program-content
    Текст #2
    Идентификатор : 7
    Формат : Timed Text
    Режим смешивания : sbtl
    Идентификатор кодека : tx3g
    Продолжительность : 1 ч. 43 м.
    Вид битрейта : Переменный
    Битрейт : 36 бит/сек
    Размер потока : 27, 0 Кбайт (0%)
    Язык : Spanish
    Default : Нет
    Forced : Нет
    Alternate group : 2
    Дата кодирования : UTC 2018-05-30 04:13:45
    Дата пометки : UTC 2018-05-30 04:36:38
    tagc : public.main-program-content
    Меню
    Идентификатор : 8
    Идентификатор кодека : text
    Продолжительность : 1 ч. 50 м.
    Язык : English
    Дата кодирования : UTC 2018-05-30 04:36:38
    Дата пометки : UTC 2018-05-30 04:36:38
    Вид битрейта : CBR
    Menu For : 1
    00:00:00.000 : (01)00:00:00:000
    00:10:45.937 : (02)00:10:45:937
    00:16:40.665 : (03)00:16:40:665
    00:24:52.030 : (04)00:24:52:030
    00:28:48.769 : (05)00:28:48:769
    00:38:55.041 : (06)00:38:55:041
    00:46:34.875 : (07)00:46:34:875
    00:56:27.925 : (08)00:56:27:925
    01:07:02.434 : (09)01:07:02:434
    01:13:54.430 : (10)01:13:54:430
    01:22:24.979 : (11)01:22:24:979
    01:40:27.854 : (12)01:40:27:854



    Обитель теней/Marrowbone (2017) BDRip [1080p] ATV
    Рейтинг →
     (голосов: 1, оценка 4/5, голосовать можно 1 раз )

    Другие торренты по теме:

  • Обитель теней / Marrowbone (2017) BDRip [H.264 / 1080p] [EN]
  • Обитель теней / Marrowbone (2017) BDRip [H.264 / 1080p] [PR]
  • Обитель теней / Marrowbone (2017) WEB-DL [H.264 / 1080p-LQ]
  • Обитель теней / Marrowbone (2017) BDRemux [H.264 / 1080p]
  • Обитель теней / Marrowbone (2017) HDRip
  • Обитель теней / Marrowbone (2017) WEB-DLRip [H.264]


    • Комментарии (0):

      Информация

      Информация

        Посетители, находящиеся в группе Гости, не могут оставлять комментарии в данной новости.

        ↓ Меню




        ↓ Опрос

        Вы добавили сайт в закладки?
        Да
        Нет


        Top 10 за месяц (Программы)