.
Авторизация | Регистрация
Хочешь лучшие торренты? Добавь свой email!
Добавить

Торрент скачать бесплатно

  • support: webmaster@btracker.org
» » Осколки / Middleground (2017) BDRip [1080p] ATV (MVO) торрент скачать бесплатно


    Осколки / Middleground (2017) BDRip [1080p] ATV (MVO) торрент скачать бесплатно

    Опубликовал: Админ | Дата: 31-05-2018, 05:00 | .torrent скачали: 1

    Осколки / Middleground (2017) BDRip [1080p] ATV (MVO)Производство: Россия, США/ВайТ Медиа
    Жанр: Драма, Мелодрама
    Режиссер: Алиса Хазанова
    Продюсер: Илья Стюарт, Алиса Хазанова, Роман Волобуев
    Актеры: Наталия Антонова, Александр Дьяченко, Татьяна Черкасова, Валерия Бурдужа, Анна Дулова, Аглая Тарасова, Дмитрий Пчела

    Описание

    Вы когда-нибудь думали о том, что жизнь могла сложиться по-другому? Вы могли родиться в другом месте, сделать другой выбор, пойти по незнакомому пути…
    Он и она словно застыли в рутине похожих дней, где сны кажутся более реальными, чем череда будней. Но что, если параллельный мир вовсе не иллюзия и однажды кто-то из них погрузится в него как в настоящий?

    Возраст: 18+ (зрителям, достигшим 18 лет. запрещено для детей)
    Дата российской премьеры: 2 ноября 2017, ПРОвзгляд
    Продолжительность: 01: 13: 11
    Качество видео: WEB-DL 1080p
    Перевод: Многоголосый (профессиональный, закадровый) (iTunes )
    Субтитры: Русские (вшитые, отключаемые)
    Видео: H.264, 1920x802 (2.40: 1), 4630 kbps, 24.000 fps
    Аудио#1 : AAC, 2.0 ch, 288 kbps - Русский MVO iTunes
    Аудио#2 : AAC, 2.0 ch, 280 kbps - English, Original |
    Аудио#3 : AC3, 6.0 ch, 384 kbps - Русский MVO, iTunes
    Аудио#4 : AC3, 6.0 ch, 384 kbps - English, Original
    Код: выделить все

    Общее
    Полное имя : /Users/Осколки.2017.WEB-DL.1080p.m4v
    Формат : MPEG-4
    Идентификатор кодека : M4V (M4V /M4A /mp42/isom)
    Размер файла : 3, 05 Гбайт
    Продолжительность : 1 ч. 13 м.
    Режим общего битрейта : Переменный
    Общий поток : 5976 Кбит/сек
    Название фильма : Осколки
    Исполнитель : Alisa Khazanova
    Режиссёр : Alisa Khazanova
    Исполнитель : Noah Huntley/Rob Campbell/Alisa Khazanova/Marisa Ryan/Chris Beetem
    Сценарист : Alisa Khazanova/Michael Kupisk
    Продюсер : Ilya Stewart/Roman Volobuev/Alisa Khazanova/Claudio Bellante
    Жанр : мелодрама, драма
    Тип содержимого : Short Film
    Дата записи : UTC 2017-06-27 00:00:00
    Дата кодирования : UTC 2018-05-29 18:28:03
    Дата пометки : UTC 2018-05-29 18:57:15
    Обложка : Yes
    LongDescription : Муж и жена в уютном отеле, куда можно приехать на пару дней, рискуя застрять навсегда. У него — телефонные звонки и встречи с коллегами, у нее — сны и сомнения. Реакции — предсказуемы, а слова — заучены. Вечная пластинка жизни, которая звучит, повторяя сама себя. Но вот-вот что-то пойдет не так, заставит сойти с колеи, сделать выбор.
    Видео
    Идентификатор : 1
    Формат : AVC
    Формат/Информация : Advanced Video Codec
    Профиль формата : High@L4
    Настройки формата : CABAC/5 Ref Frames
    Параметр CABAC формата : Да
    Параметр ReFrames формата : 5 кадров
    Идентификатор кодека : avc1
    Идентификатор кодека/Информация : Advanced Video Coding
    Продолжительность : 1 ч. 13 м.
    Битрейт : 4630 Кбит/сек
    Ширина : 1920 пикселей
    Высота : 802 пикселя
    Соотношение сторон : 2, 40:1
    Режим частоты кадров : Переменный
    Частота кадров : 24, 000 кадра/сек
    Минимальная частота кадров : 23, 810 кадра/сек
    Максимальная частота кадров : 24, 390 кадра/сек
    Цветовое пространство : YUV
    Субдискретизация насыщенности : 4:2:0
    Битовая глубина : 8 бит
    Тип развёртки : Прогрессивная
    Бит/(Пиксели*Кадры) : 0.125
    Размер потока : 2, 37 Гбайт (77%)
    Язык : English
    Дата кодирования : UTC 2018-05-29 18:28:03
    Дата пометки : UTC 2018-05-29 18:57:14
    Цветовой диапазон : Limited
    Основные цвета : BT.709
    Характеристики трансфера : BT.709
    Коэффициенты матрицы : BT.709
    Аудио #1
    Идентификатор : 2
    Формат : AAC
    Формат/Информация : Advanced Audio Codec
    Профиль формата : LC
    Идентификатор кодека : mp4a-40-2
    Продолжительность : 1 ч. 13 м.
    Вид битрейта : Переменный
    Битрейт : 288 Кбит/сек
    Максимальный битрейт : 500 Кбит/сек
    Каналы : 2 канала
    Расположение каналов : Front: L R
    Частота : 48, 0 КГц
    Частота кадров : 46, 875 кадров/сек (1024 SPF)
    Метод сжатия : С потерями
    Размер потока : 151 Мбайт (5%)
    Язык : Russian
    Default : Да
    Alternate group : 1
    Дата кодирования : UTC 2018-05-29 18:28:03
    Дата пометки : UTC 2018-05-29 18:57:14
    Fallback From : 4
    tagc : public.main-program-content
    Аудио #2
    Идентификатор : 3
    Формат : AAC
    Формат/Информация : Advanced Audio Codec
    Профиль формата : LC
    Идентификатор кодека : mp4a-40-2
    Продолжительность : 1 ч. 13 м.
    Вид битрейта : Переменный
    Битрейт : 280 Кбит/сек
    Максимальный битрейт : 498 Кбит/сек
    Каналы : 2 канала
    Расположение каналов : Front: L R
    Частота : 48, 0 КГц
    Частота кадров : 46, 875 кадров/сек (1024 SPF)
    Метод сжатия : С потерями
    Размер потока : 147 Мбайт (5%)
    Язык : English
    Default : Нет
    Alternate group : 1
    Дата кодирования : UTC 2018-05-29 18:28:03
    Дата пометки : UTC 2018-05-29 18:57:14
    Fallback From : 5
    tagc : public.main-program-content
    Аудио #3
    Идентификатор : 4
    Формат : AC-3
    Формат/Информация : Audio Coding 3
    Идентификатор кодека : ac-3
    Продолжительность : 1 ч. 13 м.
    Вид битрейта : Постоянный
    Битрейт : 384 Кбит/сек
    Каналы : 6 каналов
    Расположение каналов : Front: L C R, Side: L R, LFE
    Частота : 48, 0 КГц
    Частота кадров : 31, 250 кадров/сек (1536 SPF)
    Битовая глубина : 16 бит
    Метод сжатия : С потерями
    Размер потока : 201 Мбайт (6%)
    Язык : Russian
    Service kind : Complete Main
    Default : Inherited From: 2
    Alternate group : 1
    Дата кодирования : UTC 2018-05-29 18:28:03
    Дата пометки : UTC 2018-05-29 18:57:14
    Fallback To : 2
    tagc : public.main-program-content
    Аудио #4
    Идентификатор : 5
    Формат : AC-3
    Формат/Информация : Audio Coding 3
    Идентификатор кодека : ac-3
    Продолжительность : 1 ч. 13 м.
    Вид битрейта : Постоянный
    Битрейт : 384 Кбит/сек
    Каналы : 6 каналов
    Расположение каналов : Front: L C R, Side: L R, LFE
    Частота : 48, 0 КГц
    Частота кадров : 31, 250 кадров/сек (1536 SPF)
    Битовая глубина : 16 бит
    Метод сжатия : С потерями
    Размер потока : 201 Мбайт (6%)
    Язык : English
    Service kind : Complete Main
    Default : Нет
    Alternate group : 1
    Дата кодирования : UTC 2018-05-29 18:28:03
    Дата пометки : UTC 2018-05-29 18:57:14
    Fallback To : 3
    tagc : public.main-program-content
    Текст
    Идентификатор : 6
    Формат : Timed Text
    Режим смешивания : sbtl
    Идентификатор кодека : tx3g
    Продолжительность : 1 ч. 8 м.
    Вид битрейта : Переменный
    Битрейт : 95 бит/сек
    Размер потока : 48, 0 Кбайт (0%)
    Язык : Russian
    Default : Да
    Forced : Нет
    Alternate group : 2
    Дата кодирования : UTC 2018-05-29 18:28:03
    Дата пометки : UTC 2018-05-29 18:57:14
    tagc : public.main-program-content



    Осколки/Middleground (2017) BDRip [1080p] ATV (MVO)
    Рейтинг →
     (голосов: 1, оценка 3/5, голосовать можно 1 раз )

    Другие торренты по теме:

  • Анна Кувайкова | Осколки прошлого (2014) [MP3]
  • Камень и осколки / Я всё помню, Ричард! / Akmens un skembas (1966) DVDRip [H.264]
  • Камень и осколки / Я всё помню, Ричард! / Akmens un skembas (1966) DVDRip
  • Осколки Византии (2015) DVDRip скачать через торрент бесплатно
  • Осколки Византии (2015) DVD5 скачать через торрент бесплатно
  • Бульс - Осколки (2016) EP [MP3|320 кб / с] <Hip-Hop>
  • Екатерина Флат | Осколки пламени (2016) [FB2]
  • Иван Плотников | Осколки надежд (2016) [FB2]


    • Комментарии (0):

      Информация

      Информация

        Посетители, находящиеся в группе Гости, не могут оставлять комментарии в данной новости.

        ↓ Меню




        ↓ Опрос

        Вы добавили сайт в закладки?
        Да
        Нет


        Top 10 за месяц (Программы)